<?xml version="1.0" standalone="no"?>
<!DOCTYPE svg PUBLIC "-//W3C//DTD SVG 1.1//EN" "http://www.w3.org/Graphics/SVG/1.1/DTD/svg11.dtd" >
<svg xmlns="http://www.w3.org/2000/svg">
<metadata></metadata>
<defs>
<font id="nexa_bookregular" horiz-adv-x="689" >
<font-face units-per-em="1000" ascent="750" descent="-250" />
<missing-glyph horiz-adv-x="261" />
<glyph unicode=" "  horiz-adv-x="261" />
<glyph unicode="&#x09;" horiz-adv-x="261" />
<glyph unicode="&#xa0;" horiz-adv-x="261" />
<glyph unicode="!" horiz-adv-x="253" d="M91 700h71v-547h-71v547zM79 44q0 31 24.5 44t49.5 0t25 -44t-25 -43.5t-49.5 0t-24.5 43.5z" />
<glyph unicode="&#x22;" horiz-adv-x="361" d="M75 702h62v-259h-62v259zM225 702h61v-259h-61v259z" />
<glyph unicode="#" horiz-adv-x="678" d="M264 700h68l-40 -164h178l41 164h68l-41 -164h102v-57h-116l-66 -258h107v-59h-120l-40 -162h-68l40 162h-178l-40 -162h-68l40 162h-94v59h107l67 258h-99v57h112zM459 481h-182l-68 -262h183z" />
<glyph unicode="$" horiz-adv-x="655" d="M589 582l-58 -31q-25 47 -81 71t-118 25q-34 0 -67.5 -6.5t-66 -20t-52 -40t-18.5 -62.5q0 -24 12 -43t29 -30.5t46.5 -21.5t54.5 -15.5t64 -12.5q52 -9 83.5 -16t74 -23t66 -35.5t41 -53t17.5 -77.5q-1 -92 -76 -141.5t-175 -54.5v-98h-64v97q-86 4 -158 40t-106 105 l60 31q28 -56 94 -83t140 -27q37 0 71 6t67.5 19.5t54 41t20.5 65.5q0 34 -17 58t-53.5 39.5t-66.5 23t-82 17.5q-35 6 -56.5 10t-52.5 12t-50.5 17t-41.5 23t-34.5 31t-21 41t-9.5 53q-1 38 13 69.5t38 52.5t56.5 36.5t65.5 23t69 10.5v97h65v-97q163 -13 223 -126z" />
<glyph unicode="%" horiz-adv-x="753" d="M563 700h72l-452 -700h-73q70 110 225 347.5t228 352.5zM192 699q73 0 114.5 -45.5t41.5 -106.5q0 -62 -41 -106t-115 -44t-114.5 44t-40.5 106q0 61 41 106.5t114 45.5zM561 295q74 0 115 -45t41 -106q0 -62 -41 -106t-115 -44t-114.5 44t-40.5 106q0 61 40.5 106 t114.5 45zM561 236q-43 0 -67 -27t-24 -63q0 -37 24.5 -64.5t67.5 -27.5t67 26.5t24 63.5t-24.5 64.5t-67.5 27.5zM192 636q-43 0 -67 -26t-24 -61q0 -37 24 -63t68 -26q42 0 65.5 26t23.5 61q0 36 -24 62.5t-66 26.5z" />
<glyph unicode="&#x26;" horiz-adv-x="695" d="M323 330q-99 0 -146 -41t-47 -97q0 -65 50.5 -102.5t142.5 -37.5q39 0 79.5 14t72 46.5t31.5 75.5v142h-183zM567 330v-142q0 -127 83 -127v-62q-97 -10 -123 86q-25 -42 -88 -68t-114 -26q-126 0 -195 51.5t-69 150.5q0 58 38 102t95 62q-54 17 -87.5 60t-33.5 97 q1 88 68.5 140t181.5 52q236 0 237 -176h-62q0 119 -177 119q-89 0 -135 -38.5t-45 -95.5q0 -66 58.5 -98t127.5 -32h304v-55h-64z" />
<glyph unicode="'" horiz-adv-x="211" d="M75 703h61v-259h-61v259z" />
<glyph unicode="(" horiz-adv-x="332" d="M272 753l34 -49q-89 -65 -137.5 -168.5t-50.5 -221.5q-1 -120 46.5 -224t141.5 -173l-36 -51q-100 65 -157 174.5t-64 233.5q-9 143 49 273t174 206z" />
<glyph unicode=")" horiz-adv-x="330" d="M25 703l35 49q108 -71 165.5 -189.5t57.5 -253.5q0 -129 -56.5 -247.5t-165.5 -196.5l-35 52q92 68 139.5 170t47.5 219q0 129 -45.5 225t-142.5 172z" />
<glyph unicode="*" horiz-adv-x="365" d="M278 504l-44 -32l-53 77l-54 -77l-44 32l59 72l-83 22l16 51l82 -29l-3 85h55l-4 -85l88 28l15 -50l-89 -22z" />
<glyph unicode="+" horiz-adv-x="500" d="M49 375h168v166h66v-166h168v-64h-168v-170h-66v170h-168v64z" />
<glyph unicode="," horiz-adv-x="233" d="M164 35q0 -11 -5.5 -28t-17.5 -46.5t-20 -51.5h-50l28 87q-30 9 -30 40q0 17 10 28.5t23.5 14.5t27.5 0.5t24 -14.5t10 -30z" />
<glyph unicode="-" horiz-adv-x="497" d="M71 258v61h355v-61h-355z" />
<glyph unicode="." horiz-adv-x="231" d="M68 38q0 30 24 42t47.5 0t23.5 -42t-23.5 -42t-47.5 0t-24 42z" />
<glyph unicode="/" horiz-adv-x="484" d="M388 761h70l-364 -843h-69z" />
<glyph unicode="0" horiz-adv-x="683" d="M133 427v-154q0 -70 31 -121t77 -74t100 -23t100 23t77 74t31 121v154q0 69 -31 120t-77 74t-100 23.5t-100 -22.5t-77 -74t-31 -121zM65 274v152q0 91 41 157.5t102.5 96.5t133 30t133 -30t102.5 -96.5t41 -157.5v-152q0 -91 -41 -157.5t-102.5 -96.5t-133 -30t-133 30 t-102.5 96.5t-41 157.5z" />
<glyph unicode="1" horiz-adv-x="406" d="M51 0v57h133v562l-127 -32v58l192 55v-643h132v-57h-330z" />
<glyph unicode="2" horiz-adv-x="672" d="M137 510h-69q1 44 18 79t43.5 57t62.5 36.5t72.5 20.5t77.5 6q70 0 128 -18.5t100 -67t42 -121.5q0 -55 -23.5 -95.5t-63.5 -63t-86 -33t-98 -10.5q-38 0 -72 -6t-67 -20t-52.5 -42t-19.5 -67v-100h478v-65h-543v164q0 56 23.5 96.5t65 61.5t87 30.5t99.5 9.5 q47 0 90.5 11t80 44t36.5 84q0 76 -61.5 111.5t-143.5 36.5q-37 0 -70 -6t-65 -20.5t-51 -43.5t-19 -69z" />
<glyph unicode="3" horiz-adv-x="663" d="M335 329h-115v59h110q88 0 142 38.5t55 90.5q0 54 -50.5 94t-143.5 40q-47 0 -88 -9t-75.5 -39.5t-34.5 -79.5h-68q0 52 24 90t64.5 58t84 29t92.5 9q118 0 187.5 -52.5t70.5 -139.5q0 -56 -36.5 -100.5t-94.5 -56.5q63 -13 104 -57.5t41 -107.5q0 -94 -73.5 -149 t-197.5 -55q-40 0 -76.5 5t-74 19t-65 35t-44.5 56t-17 79h67q1 -130 211 -130q93 0 148 39t55 99q0 54 -52.5 95t-149.5 41z" />
<glyph unicode="4" horiz-adv-x="646" d="M439 700h78v-483h82v-59h-82v-158h-65v158h-417l-12 54zM105 217h347v402z" />
<glyph unicode="5" horiz-adv-x="659" d="M571 700v-64h-426v-205h207q129 0 193.5 -59t64.5 -156t-72.5 -159.5t-199.5 -62.5q-54 0 -100 10t-86.5 32t-64.5 63t-24 98h68q0 -42 19 -71.5t52 -43.5t65.5 -19.5t69.5 -5.5q95 0 149.5 44.5t54.5 114.5t-46.5 110.5t-142.5 40.5h-273v333h492z" />
<glyph unicode="6" d="M146 508v-169q32 46 91 69t121 23q53 0 100.5 -12t88 -36.5t64.5 -68.5t24 -103q0 -75 -42.5 -126.5t-103 -72.5t-132.5 -21t-133.5 21.5t-104 73.5t-42.5 127v295q0 97 80 150t191 53q115 0 191 -44t80 -133h-72q-4 56 -59 85t-139 29q-48 0 -92.5 -13.5t-77.5 -46.5 t-33 -80zM357 56q52 0 97 14t78 50.5t33 90.5q0 81 -61.5 119.5t-145.5 38.5q-81 0 -145.5 -41.5t-65.5 -115.5q0 -54 33.5 -90.5t78.5 -51t98 -14.5z" />
<glyph unicode="7" horiz-adv-x="562" d="M187 0h-79l357 632h-433v68h511l7 -51z" />
<glyph unicode="8" horiz-adv-x="703" d="M352 332q-48 0 -95.5 -12t-87.5 -46t-40 -84q0 -48 34 -81.5t83 -48t106 -14.5q90 0 155.5 36.5t66.5 107.5q0 49 -39.5 83t-87.5 46.5t-95 12.5zM59 191q1 62 42.5 108t103.5 62q-132 47 -132 158q0 69 42.5 114.5t102.5 63t133 17.5t133 -17t103.5 -63t43.5 -115 q0 -56 -38 -97t-99 -61q62 -16 105.5 -63t43.5 -107q0 -56 -23.5 -97t-66 -64t-92.5 -34t-110 -11t-110 11t-92 34t-66 64t-24 97zM142 520q0 -46 36 -76.5t81 -41.5t93 -11t92.5 11t81 41.5t36.5 76.5q0 70 -61 102.5t-150 32.5q-41 0 -77 -7.5t-66.5 -22.5t-48 -42 t-17.5 -63z" />
<glyph unicode="9" horiz-adv-x="691" d="M547 194v169q-32 -46 -91.5 -69t-122.5 -23q-53 0 -100.5 12t-88 36.5t-64.5 68.5t-24 103q0 75 42.5 126.5t103 72.5t132.5 21t133.5 -21.5t104 -73.5t42.5 -127v-295q0 -97 -81.5 -150.5t-192.5 -53.5q-74 0 -133.5 18t-98.5 59t-42 101h72q4 -56 60.5 -85.5 t140.5 -29.5q48 0 93.5 13.5t80 47t34.5 80.5zM334 646q-52 0 -97 -14t-78 -50.5t-33 -90.5q0 -81 61.5 -119.5t145.5 -38.5q81 0 145.5 41.5t65.5 115.5q0 54 -33.5 90.5t-78.5 51t-98 14.5z" />
<glyph unicode=":" horiz-adv-x="237" d="M71 38q0 30 23.5 42t47.5 0t24 -42q0 -29 -23.5 -41t-47.5 0t-24 41zM71 336q0 29 23.5 41t47.5 0t24 -41q0 -30 -23.5 -42t-47.5 0t-24 42z" />
<glyph unicode=";" horiz-adv-x="237" d="M71 336q0 29 23.5 41t47.5 0t24 -41q0 -30 -23.5 -42t-47.5 0t-24 42zM165 35q0 -11 -5.5 -28t-17.5 -46.5t-20 -51.5h-50l28 87q-29 9 -29 40q0 6 2 9q3 25 26 34t44.5 -3.5t21.5 -40.5z" />
<glyph unicode="&#x3c;" horiz-adv-x="366" d="M123 317l186 -167l-45 -46l-216 196v33l216 197l42 -47z" />
<glyph unicode="=" horiz-adv-x="557" d="M75 180v63h407v-63h-407zM75 387v63h407v-63h-407z" />
<glyph unicode="&#x3e;" horiz-adv-x="366" d="M57 149l186 168l-183 168l42 45l216 -197v-33l-216 -196z" />
<glyph unicode="?" horiz-adv-x="600" d="M224 46q0 31 24.5 43.5t49 0t24.5 -43.5t-24.5 -44t-49 0t-24.5 44zM104 503h-69q0 105 75.5 156t184.5 51q53 0 98 -10.5t84 -33.5t61.5 -64.5t22.5 -98.5q0 -46 -12.5 -79.5t-39 -55t-43.5 -30t-51 -21.5q-7 -3 -10 -4q-65 -22 -84 -50t-19 -107h-68q0 98 32 143 t114 71q26 9 41.5 17t33.5 23t26.5 38.5t8.5 55.5q0 42 -17.5 71t-48 43.5t-62 20.5t-68.5 6q-76 0 -132.5 -33.5t-57.5 -108.5z" />
<glyph unicode="@" horiz-adv-x="896" d="M452 624q-146 0 -241 -93t-95 -240q0 -149 93.5 -237t240.5 -88q80 0 153 38l29 -47q-80 -49 -182 -49q-177 0 -287 105t-110 278q0 171 111 281.5t288 110.5q185 0 290.5 -96t105.5 -292q0 -91 -37.5 -167.5t-99.5 -76.5q-32 0 -55 21.5t-23 62.5q-29 -47 -80.5 -73 t-106.5 -26q-105 0 -178 72.5t-73 177.5q0 111 72 180.5t179 69.5q57 0 108.5 -27t77.5 -75l2 77l56 -1v-368q0 -34 24 -34q20 0 35.5 23t23 55.5t11.5 61t4 47.5q0 175 -87.5 252t-248.5 77zM446 474q-81 0 -133.5 -52.5t-52.5 -135.5q0 -77 53.5 -132t132.5 -55 q88 0 136.5 55t48.5 133q0 77 -48 132t-137 55z" />
<glyph unicode="A" horiz-adv-x="740" d="M645 0l-72 162h-406l-72 -162h-74l314 700h70l314 -700h-74zM370 624l-175 -398h350z" />
<glyph unicode="B" horiz-adv-x="704" d="M167 326v-260h228q33 0 63 6t59 19t46 38.5t17 60.5q-1 67 -55 101.5t-125 34.5h-233zM167 635v-245h233q69 0 114 29.5t45 89.5q0 66 -46 96t-118 30h-228zM97 700h298q101 0 167.5 -47.5t66.5 -144.5q0 -51 -29.5 -91.5t-80.5 -57.5q62 -18 96.5 -66t34.5 -104 q0 -42 -14.5 -75t-38.5 -54t-58 -35t-69 -19.5t-75 -5.5h-298v700z" />
<glyph unicode="C" horiz-adv-x="709" d="M627 140l45 -45q-106 -106 -255 -106q-174 0 -268.5 101.5t-95.5 255.5q-1 98 38.5 179t124 133t201.5 52q73 0 138.5 -26.5t109.5 -78.5l-43 -43q-85 84 -205 84q-139 0 -216.5 -87.5t-77.5 -211.5q0 -129 76.5 -211t217.5 -82q124 0 210 86z" />
<glyph unicode="D" horiz-adv-x="748" d="M97 700h247q86 0 154.5 -29t110.5 -78t64 -109.5t22 -126.5q0 -69 -21 -131t-62 -113.5t-110.5 -82t-157.5 -30.5h-247v700zM167 634v-569h177q57 0 104.5 17t79.5 45.5t54.5 66.5t32.5 79.5t9 84.5q-2 71 -31 132t-94 102.5t-155 41.5h-177z" />
<glyph unicode="E" horiz-adv-x="655" d="M599 66v-66h-502v700h493v-66h-423v-251h404v-65h-404v-252h432z" />
<glyph unicode="F" horiz-adv-x="627" d="M167 0h-70v700h479v-66h-409v-266h394v-66h-394v-302z" />
<glyph unicode="G" horiz-adv-x="747" d="M673 607l-42 -45q-41 41 -98.5 62.5t-116.5 21.5q-137 0 -215.5 -87t-77.5 -212q0 -122 76.5 -205.5t216.5 -83.5q116 0 201 76v177h-229v65h296v-271q-112 -115 -268 -115q-174 0 -268.5 102.5t-94.5 253.5q-1 162 99 264t264 102q151 0 257 -105z" />
<glyph unicode="H" horiz-adv-x="758" d="M661 0h-70v310h-424v-310h-70v700h70v-324h424v324h70v-700z" />
<glyph unicode="I" horiz-adv-x="264" d="M167 0h-70v700h70v-700z" />
<glyph unicode="J" horiz-adv-x="684" d="M268 700h327v-427q0 -130 -79 -206t-206 -76q-125 0 -204.5 76.5t-79.5 203.5h70q0 -97 59 -155.5t155 -58.5q97 0 156 57.5t59 158.5v362h-257v65z" />
<glyph unicode="K" horiz-adv-x="606" d="M575 700v-5l-341 -331l371 -359v-5h-87l-351 339v-339h-70v700h70v-315l325 315h83z" />
<glyph unicode="L" horiz-adv-x="573" d="M97 700h70v-634h389v-66h-459v700z" />
<glyph unicode="M" horiz-adv-x="877" d="M710 0v597l-261 -384h-20l-262 389v-602h-70v700h86l256 -386l253 386h88v-700h-70z" />
<glyph unicode="N" horiz-adv-x="757" d="M141 700l453 -568l-4 232v336h70v-700h-42l-453 563l2 -207v-356h-70v700h44z" />
<glyph unicode="O" horiz-adv-x="813" d="M407 712q169 -1 262 -107.5t92 -256.5q0 -70 -22.5 -134t-65 -115t-111.5 -81.5t-155 -30.5q-114 0 -196.5 53t-120.5 133.5t-38 175.5q0 154 95.5 258.5t259.5 104.5zM122 348q1 -79 31.5 -144.5t96 -108t157.5 -42.5q135 0 209 86.5t75 208.5q0 126 -74 211.5 t-210 86.5q-136 0 -211.5 -84.5t-73.5 -213.5z" />
<glyph unicode="P" horiz-adv-x="679" d="M167 634v-335h243q45 0 80.5 18.5t53.5 48t26.5 65t0 71.5t-26.5 65.5t-53.5 48t-80.5 18.5h-243zM410 233h-243v-233h-70v700h313q50 0 92.5 -16t70 -43t46.5 -62t23 -73.5t0 -77t-23 -74t-46.5 -62.5t-70 -43t-92.5 -16z" />
<glyph unicode="Q" horiz-adv-x="815" d="M407 711q170 0 262.5 -104t92.5 -255q0 -137 -78 -236l87 -85l-48 -50l-88 86q-91 -75 -228 -75q-88 0 -157 29.5t-112 80.5t-65 115.5t-21 137.5q1 96 39 175t120 130t196 51zM407 645q-129 0 -207.5 -84t-77.5 -207q-1 -124 74 -210t211 -86t211 86.5t73 208.5 q-1 127 -74 209.5t-210 82.5z" />
<glyph unicode="R" horiz-adv-x="708" d="M432 263l239 -263h-91l-232 258h-181v-258h-70v700h314q111 0 171 -63.5t61 -158.5q1 -88 -52.5 -149t-158.5 -66zM411 634h-244v-310h240q81 0 123.5 42.5t42.5 111.5t-42 112.5t-120 43.5z" />
<glyph unicode="S" horiz-adv-x="660" d="M593 589l-59 -33q-54 87 -201 89q-36 0 -68 -6t-62.5 -19t-48.5 -39.5t-18 -63.5q0 -24 11 -42.5t27 -30.5t44.5 -22t53.5 -15.5t63 -12.5q36 -6 59.5 -11t55.5 -14t53 -18.5t43.5 -25t36 -34t22 -44.5t8.5 -57q0 -56 -25.5 -97.5t-68 -63t-88.5 -31t-98 -9.5 q-96 0 -175 38t-117 117l61 33q33 -63 96.5 -92t134.5 -29q37 0 70 5.5t66 19.5t53 42t20 68q0 34 -16.5 58.5t-51 39.5t-65.5 23t-81 17q-48 8 -79 15t-69.5 21.5t-60.5 33t-37.5 49t-15.5 69.5q-1 52 23.5 91.5t65 61t85 31.5t92.5 10q182 0 261 -122z" />
<glyph unicode="T" horiz-adv-x="596" d="M263 0v634h-247v66h564v-66h-247v-634h-70z" />
<glyph unicode="U" horiz-adv-x="734" d="M575 700h70v-427q0 -136 -78 -208t-198 -72q-121 0 -200.5 72.5t-79.5 207.5v427h70v-427q0 -98 59.5 -156.5t150.5 -58.5q86 0 146 55.5t60 159.5v427z" />
<glyph unicode="V" horiz-adv-x="722" d="M696 700l-295 -702h-78l-298 702h77l260 -625l256 625h78z" />
<glyph unicode="W" horiz-adv-x="1080" d="M1049 700l-248 -702h-71l-105 301l-85 265l-84 -264l-105 -302h-72l-248 702h79l204 -606l204 606h44l204 -606l205 606h78z" />
<glyph unicode="X" horiz-adv-x="622" d="M414 553l104 147h76v-2l-237 -340l253 -356v-2h-82l-114 162l-103 154l-109 -161l-110 -155h-80v2l253 356l-237 340v2h78l106 -151l99 -148z" />
<glyph unicode="Y" horiz-adv-x="663" d="M108 700l223 -350l226 350h82v-2l-273 -416v-282h-70v282l-269 416v2h81z" />
<glyph unicode="Z" horiz-adv-x="596" d="M61 635v65h496v-30l-435 -602h435v-68h-535v36l428 599h-389z" />
<glyph unicode="[" horiz-adv-x="319" d="M283 -170h-194v883h194v-63h-127v-759h127v-61z" />
<glyph unicode="\" horiz-adv-x="485" d="M26 761h71l363 -843h-70z" />
<glyph unicode="]" horiz-adv-x="319" d="M230 -169h-194v63h126v757h-126v63h194v-883z" />
<glyph unicode="^" horiz-adv-x="593" d="M52 369l-2 4l217 327h57l219 -327l-2 -4h-71l-174 266l-177 -266h-67z" />
<glyph unicode="_" horiz-adv-x="609" d="M70 -82v60h469v-60h-469z" />
<glyph unicode="`" horiz-adv-x="234" d="M23 698v2h82l74 -124v-4h-63z" />
<glyph unicode="a" horiz-adv-x="634" d="M493 396v98h63v-494h-62v98q-31 -53 -84.5 -80.5t-111.5 -27.5q-108 0 -180 71t-72 186q0 114 72.5 184t180.5 70q60 0 113.5 -27.5t80.5 -77.5zM301 440q-80 0 -134 -54t-54 -139q0 -86 54 -140t134 -54q52 0 93.5 21.5t62.5 55.5t31 75t0 82.5t-31 75.5t-62.5 55.5 t-93.5 21.5z" />
<glyph unicode="b" horiz-adv-x="635" d="M335 439q-80 0 -134 -53.5t-54 -137.5q0 -85 53.5 -139t134.5 -54q80 0 133 51t53 141q0 91 -53 141.5t-133 50.5zM78 700h67v-304q27 52 80 79.5t114 27.5q108 0 178.5 -68t70.5 -188t-70 -188t-179 -68q-133 0 -194 104l-4 -95h-63v700z" />
<glyph unicode="c" horiz-adv-x="516" d="M439 112l46 -45q-76 -75 -183 -75q-109 0 -182.5 69t-73.5 186t72.5 185.5t183.5 68.5q101 0 175 -73l-44 -43q-54 53 -130 53q-82 0 -136 -51.5t-54 -139.5q0 -90 54 -140.5t135 -50.5t137 56z" />
<glyph unicode="d" horiz-adv-x="635" d="M300 439q-81 0 -133.5 -50.5t-52.5 -141.5q0 -90 53 -141t133 -51t133.5 54t53.5 139q0 84 -53.5 137.5t-133.5 53.5zM490 700h67v-700h-65l-2 99q-29 -52 -81.5 -80t-112.5 -28q-109 0 -179 68t-70 188t70 188t179 68q61 0 114 -27.5t80 -79.5v304z" />
<glyph unicode="e" horiz-adv-x="586" d="M545 219h-430q7 -76 59.5 -120t127.5 -44q47 0 94.5 18t72.5 50l45 -40q-35 -44 -93 -68t-119 -24q-112 0 -184 70t-72 187q0 111 71.5 183t181.5 72q118 0 189 -72.5t57 -211.5zM115 276h367q-1 78 -53 122.5t-129 44.5q-75 0 -125 -44t-60 -123z" />
<glyph unicode="f" horiz-adv-x="372" d="M199 0h-67v431h-98v58h98v41q0 82 40 128.5t118 46.5q57 0 106 -35l-29 -50q-42 25 -76 25q-92 0 -92 -115v-41h158v-58h-158v-431z" />
<glyph unicode="g" horiz-adv-x="611" d="M452 466l52 62l46 -38l-53 -63q32 -36 49 -73t17 -91q0 -70 -38.5 -128t-110.5 -79q146 -39 146 -162q0 -88 -74.5 -138t-179.5 -50q-109 0 -180 55t-70 149h67q-1 -66 53 -102.5t130 -36.5t131 31t55 92t-55 93.5t-131 32.5q-116 0 -187.5 65t-71.5 178t78.5 178 t180.5 65q89 0 146 -40zM306 443q-76 0 -133.5 -46.5t-57.5 -133.5q0 -88 53.5 -134.5t137.5 -46.5t137 53t53 128q0 87 -55.5 133.5t-134.5 46.5z" />
<glyph unicode="h" horiz-adv-x="594" d="M78 700h66v-292q56 91 172 93q101 0 153.5 -60.5t52.5 -163.5v-277h-67v277q0 76 -37 118t-110 42q-71 0 -117 -49t-46 -122v-266h-67v700z" />
<glyph unicode="i" horiz-adv-x="223" d="M145 496h-67v-496h67v496zM65 649q0 30 23.5 42t47.5 0t24 -42t-23.5 -42t-47.5 0t-24 42z" />
<glyph unicode="j" horiz-adv-x="223" d="M145 495h-67v-564q0 -38 -3.5 -59t-20 -37.5t-48.5 -16.5q-36 0 -71 18l-21 -55q48 -28 94 -28q77 0 107 45.5t30 132.5v564zM64 653q0 30 24 42t47.5 0t23.5 -42t-23.5 -42t-47.5 0t-24 42z" />
<glyph unicode="k" horiz-adv-x="482" d="M78 700h66v-418l216 212h85v-4l-237 -229l266 -257v-4h-86l-244 237v-237h-66v700z" />
<glyph unicode="l" horiz-adv-x="237" d="M85 700h67v-700h-67v700z" />
<glyph unicode="m" horiz-adv-x="929" d="M502 0h-67v286q0 66 -40.5 110t-104.5 44t-104.5 -44t-40.5 -110v-286h-67v494h63l3 -77q44 86 153 86q58 0 106 -28t68 -86q24 56 72 85t106 29q94 0 151 -58.5t57 -156.5v-288h-67v288q0 67 -39 109.5t-103 42.5t-105 -44t-41 -110v-286z" />
<glyph unicode="n" horiz-adv-x="608" d="M536 0h-68v277q0 78 -43 120t-118 42q-71 -1 -116.5 -49.5t-45.5 -120.5v-269h-67v494h64l2 -83q59 91 172 91q99 0 159.5 -58t60.5 -166v-278z" />
<glyph unicode="o" horiz-adv-x="600" d="M300 503q109 0 181.5 -72t72.5 -185q0 -114 -71.5 -184t-182.5 -70q-110 0 -182 70.5t-72 183.5q0 114 71 185.5t183 71.5zM300 442q-82 0 -134.5 -55t-52.5 -141t52.5 -138.5t134.5 -52.5q84 0 135.5 52.5t51.5 138.5t-52.5 141t-134.5 55z" />
<glyph unicode="p" horiz-adv-x="635" d="M335 55q81 0 133.5 51t52.5 141t-52 140t-134 50q-81 0 -133 -54t-52 -137q0 -82 52.5 -136.5t132.5 -54.5zM144 -236h-66v730h65l2 -105q29 53 82.5 83t117.5 30q107 -3 175 -72t68 -183q0 -118 -70 -187.5t-180 -69.5q-60 0 -112.5 28t-81.5 82v-336z" />
<glyph unicode="q" horiz-adv-x="635" d="M300 55q80 0 132.5 54.5t52.5 136.5q0 83 -52 137t-133 54q-82 0 -134 -50t-52 -140t52.5 -141t133.5 -51zM557 -236h-66v336q-29 -54 -81.5 -82t-112.5 -28q-110 0 -180 69.5t-70 187.5q0 114 68 183t175 72q64 0 117.5 -30t82.5 -83l2 105h65v-730z" />
<glyph unicode="r" horiz-adv-x="418" d="M78 494h63l4 -81q22 46 65 67.5t92 21.5q62 0 112 -35l-31 -56q-38 26 -85 26q-65 -1 -109 -45t-44 -111v-281h-67v494z" />
<glyph unicode="s" horiz-adv-x="499" d="M439 437l-39 -44q-55 50 -146 50q-58 1 -96.5 -20t-37.5 -60q0 -27 23 -45t47.5 -24t64.5 -12q32 -5 47 -7.5t44.5 -9.5t45 -17t33.5 -25t26 -37.5t8 -51.5q-1 -49 -31.5 -83t-74.5 -47.5t-97 -13.5q-148 0 -219 96l42 46q58 -78 178 -80q53 0 94 19t41 64q0 23 -10 39 t-33 25.5t-43.5 14t-56.5 9.5q-34 5 -57.5 10t-51.5 15.5t-45 24t-29 36.5t-12 52q0 71 59 107.5t140 35.5q113 0 186 -67z" />
<glyph unicode="t" horiz-adv-x="392" d="M136 633l67 7v-147h160v-57h-160v-279q0 -51 18.5 -77t65.5 -26q31 0 72 19l21 -56q-51 -24 -95 -24q-77 -1 -113 41.5t-36 122.5v279h-101v57h101v140z" />
<glyph unicode="u" horiz-adv-x="606" d="M71 494h67v-277q0 -77 43.5 -119.5t118.5 -41.5q71 0 116.5 48.5t45.5 120.5v269h66v-494h-62l-2 83q-58 -89 -175 -91q-98 0 -158 60t-60 164v278z" />
<glyph unicode="v" horiz-adv-x="554" d="M448 494h74l-208 -495h-74l-208 495h74l171 -421z" />
<glyph unicode="w" horiz-adv-x="833" d="M390 494h53l140 -421l139 421h74l-174 -495h-76l-73 199l-56 187l-57 -188l-73 -198h-76l-175 495h74l140 -421z" />
<glyph unicode="x" horiz-adv-x="490" d="M245 300l134 194h81v-3l-173 -237l186 -252v-2h-80l-148 207l-148 -207h-80v2l186 252l-173 237v3h80z" />
<glyph unicode="y" horiz-adv-x="544" d="M441 494h74l-313 -730h-73l104 242l-198 488h75l105 -273l55 -142l56 142z" />
<glyph unicode="z" horiz-adv-x="466" d="M48 494h377v-29l-292 -401h293v-64h-395v25l295 408h-278v61z" />
<glyph unicode="{" horiz-adv-x="318" d="M282 -79v-52q-102 -16 -135.5 23t-33.5 148v117q0 110 -76 110v52q76 0 76 109v136q0 90 39 126t130 18v-49q-61 10 -82.5 -10.5t-21.5 -85.5v-135q0 -27 -1.5 -42.5t-7.5 -37t-21.5 -35t-40.5 -20.5q20 -5 34 -16.5t21 -23t11 -30.5t4.5 -31.5t0.5 -34.5v-144 q0 -64 21 -83t83 -9z" />
<glyph unicode="|" horiz-adv-x="246" d="M157 717v-827h-68v827h68z" />
<glyph unicode="}" horiz-adv-x="318" d="M37 -137v53q62 -10 82.5 9t20.5 83v144q0 27 1.5 42.5t7.5 37.5t22 36t41 20q-25 7 -41 20t-22 34.5t-7.5 37t-1.5 43.5v135q0 65 -21.5 85.5t-81.5 10.5v49q91 17 129.5 -18.5t38.5 -125.5v-136q0 -110 77 -110v-52q-77 0 -77 -109v-118q0 -109 -33 -147.5t-135 -23.5z " />
<glyph unicode="~" horiz-adv-x="630" d="M505 362l52 -18q-23 -72 -70.5 -96t-116.5 4l-118 60q-44 23 -77 10.5t-51 -57.5l-49 20q25 69 79.5 91.5t111.5 -8.5l119 -59q92 -40 120 53z" />
<glyph unicode="&#xa1;" horiz-adv-x="235" d="M82 -209h71v548h-71v-548zM165 447q0 -31 -24.5 -44t-49.5 0t-25 44t24.5 43.5t49.5 0t25 -43.5z" />
<glyph unicode="&#xa2;" horiz-adv-x="536" d="M441 104l44 -48q-64 -63 -150 -72v-71h-65v72q-98 12 -160.5 78.5t-62.5 172.5q0 103 62 171t161 81v63h65v-63q86 -11 150 -72l-43 -43q-59 56 -138 56q-81 0 -136 -52t-55 -141q0 -90 54.5 -140.5t136.5 -50.5q76 0 137 59z" />
<glyph unicode="&#xa3;" horiz-adv-x="649" d="M178 500q0 -33 24 -143h250v-58h-237q24 -149 -77 -236h453v-63h-532v65q66 59 84.5 114.5t6.5 119.5h-91v58h78q-25 95 -25 143q0 100 68 153.5t175 53.5q102 0 165 -44.5t65 -143.5h-63q-3 127 -167 127q-80 0 -128.5 -39t-48.5 -107z" />
<glyph unicode="&#xa4;" horiz-adv-x="603" d="M301 177q68 0 106 43t38 103t-38 103.5t-106 43.5q-67 0 -105.5 -43.5t-38.5 -103.5q0 -59 38.5 -102.5t105.5 -43.5zM184 153l-59 -60l-50 49l60 59q-39 53 -38.5 121.5t38.5 121.5l-60 59l50 50l58 -60q52 34 119 34q65 0 117 -34l60 60l49 -50l-59 -58 q38 -54 37.5 -123t-38.5 -121l60 -59l-49 -49l-61 60q-49 -33 -117 -33q-67 0 -117 33z" />
<glyph unicode="&#xa5;" horiz-adv-x="673" d="M523 217v-55h-153v-162h-70v162h-157v55h157v60h-157v55h124l-236 366v2h81l223 -352l226 352h82v-2l-240 -366h120v-55h-153v-60h153z" />
<glyph unicode="&#xa6;" horiz-adv-x="243" d="M154 342h-65v365h65v-365zM89 276h65v-365h-65v365z" />
<glyph unicode="&#xa7;" horiz-adv-x="561" d="M57 79l47 44q61 -79 179 -79q56 0 101 19.5t47 63.5q1 21 -10.5 36t-36.5 23.5t-46 12.5t-59 9q-208 22 -208 139q0 35 25 67.5t67 46.5q-90 29 -90 112q1 71 64.5 106.5t148.5 34.5q125 0 194 -68l-43 -41q-59 49 -152 49q-60 1 -102.5 -20.5t-41.5 -59.5q0 -21 13 -36 t37.5 -24t43.5 -13t48 -8q35 -4 60.5 -8.5t58 -15t52.5 -25t33.5 -39t11.5 -55.5q-3 -85 -98 -108q102 -30 98 -117q-1 -40 -22.5 -69.5t-55 -44.5t-68.5 -22t-72 -7q-70 0 -130.5 25t-93.5 72zM432 351q0 30 -30.5 52t-74 28.5t-87 2.5t-73 -26.5t-28.5 -58.5 q0 -30 30.5 -51t73.5 -26.5t86.5 -1t73.5 26t29 54.5z" />
<glyph unicode="&#xa8;" horiz-adv-x="455" d="M63 672q0 27 22 38.5t44 0t22 -38.5t-22 -38.5t-44 0t-22 38.5zM286 672q0 27 22 38.5t44 0t22 -38.5t-22 -38.5t-44 0t-22 38.5z" />
<glyph unicode="&#xa9;" horiz-adv-x="834" d="M418 714q167 0 264 -104.5t97 -260.5q0 -155 -97 -260t-264 -105q-168 0 -265.5 105t-97.5 260q0 156 97.5 260.5t265.5 104.5zM431 156q80 0 139 59l-43 43q-41 -41 -96 -41q-58 0 -97.5 38t-39.5 96t39.5 96.5t97.5 38.5q54 0 96 -40l42 42q-56 58 -138 58 q-85 0 -141.5 -55t-56.5 -140t56.5 -140t141.5 -55zM119 349q0 -132 80.5 -219.5t218.5 -87.5t217 87t79 220q0 134 -79 221.5t-217 87.5t-218.5 -88t-80.5 -221z" />
<glyph unicode="&#xaa;" horiz-adv-x="496" d="M355 643v58h56v-324h-55l-1 59q-20 -31 -53 -48t-69 -17q-71 0 -118 45.5t-47 123.5q0 77 47.5 121.5t118.5 44.5q36 0 69 -16.5t52 -46.5zM238 651q-46 0 -77.5 -31t-31.5 -80t31.5 -80.5t77.5 -31.5q42 0 70.5 23t35 56t0 65.5t-35 55.5t-70.5 23zM416 309v-61h-327v61 h327z" />
<glyph unicode="&#xab;" horiz-adv-x="435" d="M47 297l139 219h71v-3l-136 -216q14 -22 44 -69t52 -82.5t40 -69.5h-71zM175 297l138 219h72v-3l-136 -216l136 -221h-72z" />
<glyph unicode="&#xac;" horiz-adv-x="511" d="M434 367v-198h-64v135h-295v63h359z" />
<glyph unicode="&#xad;" horiz-adv-x="0" />
<glyph unicode="&#xae;" horiz-adv-x="832" d="M416 714q168 0 264.5 -105t96.5 -260t-96.5 -260t-264.5 -105q-167 0 -264 105t-97 260t97 260t264 105zM119 349q1 -134 80 -221t217 -87t217.5 87.5t79.5 220.5t-79.5 220.5t-217.5 87.5t-217 -87t-80 -221zM591 175l-113 130q52 7 79.5 45.5t24.5 81t-38 76.5t-93 34 h-171v-379h57v137h75l116 -137h63v12zM337 488h114q45 0 63 -34t-1 -68t-64 -34h-112v136z" />
<glyph unicode="&#xaf;" horiz-adv-x="407" d="M35 645v57h325v-57h-325z" />
<glyph unicode="&#xb0;" horiz-adv-x="324" d="M164 679q-37 0 -53 -29.5t-1 -59.5t54 -30q37 0 52 30t0 59.5t-52 29.5zM164 724q40 0 68 -21.5t34.5 -52t0 -61t-34.5 -52t-68 -21.5q-53 0 -82 32.5t-28 71.5t30.5 71.5t79.5 32.5z" />
<glyph unicode="&#xb1;" horiz-adv-x="529" d="M74 341v60h159v160h62v-160h159v-60h-159v-164h-62v164h-159zM80 43v60h370v-60h-370z" />
<glyph unicode="&#xb2;" horiz-adv-x="362" d="M101 676h-56q0 58 39 83t98 25t98.5 -25.5t39.5 -84.5q0 -33 -11.5 -55.5t-34 -34t-42 -16t-48.5 -7.5q-19 -2 -22.5 -2.5t-19 -2.5t-19.5 -5.5t-12.5 -9.5t-11 -15.5t-2.5 -22.5v-27h219v-56h-273v84q0 101 136 108q84 4 84 62q0 62 -82 62q-80 0 -80 -60z" />
<glyph unicode="&#xb3;" horiz-adv-x="362" d="M181 582h-56v49h52q79 0 80 52q0 20 -21 36.5t-59 16.5q-31 0 -56 -13t-26 -45h-52q0 54 39 80t95 26q57 0 96.5 -26t39.5 -75q0 -26 -15 -48t-40 -29q29 -8 46 -31t17 -47q0 -60 -42 -86t-103 -26q-59 0 -98 26t-40 83h56q2 -56 83 -56q85 0 85 59q0 20 -20 37t-61 17z " />
<glyph unicode="&#xb4;" horiz-adv-x="224" d="M183 700v-2l-94 -126h-61v4l75 124h80z" />
<glyph unicode="&#xb6;" horiz-adv-x="797" d="M344 635v-850h-70v405q-116 3 -179.5 78t-62.5 176q2 104 69 179.5t185 75.5h477v-64h-103v-850h-68v850h-248z" />
<glyph unicode="&#xb7;" horiz-adv-x="239" d="M71 286q0 30 24.5 42.5t48.5 0t24 -42.5t-24 -42.5t-48.5 0t-24.5 42.5z" />
<glyph unicode="&#xb8;" horiz-adv-x="296" d="M25 -158l34 32q24 -36 73 -38q50 0 60 36q9 30 -18.5 47.5t-73.5 3.5l-11 10l23 89h49l-15 -54q59 1 84.5 -31t14.5 -75q-9 -38 -40.5 -57.5t-70.5 -19.5q-78 2 -109 57z" />
<glyph unicode="&#xb9;" horiz-adv-x="255" d="M36 419v50h68v243l-54 -13v51l110 27v-308h69v-50h-193z" />
<glyph unicode="&#xba;" horiz-adv-x="475" d="M385 310v-58h-298v58h298zM238 371q-72 0 -120 45.5t-48 123.5q0 77 48 121.5t120 44.5t120.5 -44.5t48.5 -121.5q0 -78 -48.5 -123.5t-120.5 -45.5zM238 428q46 0 76.5 31t30.5 81q0 49 -30.5 80t-76.5 31t-76 -31t-30 -80q0 -50 30 -81t76 -31z" />
<glyph unicode="&#xbb;" horiz-adv-x="433" d="M246 518l139 -220l-139 -220h-71l136 220l-136 216v4h71zM123 518l138 -220l-138 -220h-72l136 220l-136 216v4h72z" />
<glyph unicode="&#xbc;" horiz-adv-x="733" d="M590 359h65v-231h43v-53h-43v-74h-55v74h-192l-4 47zM600 128v166l-131 -166h131zM205 -2h-66l375 706h67zM49 344v50h63v245l-54 -12v49l110 26v-308h66v-50h-185z" />
<glyph unicode="&#xbd;" horiz-adv-x="787" d="M204 -2h-66l375 706h67zM49 345v50h62v243l-54 -13v51l112 27v-308h65v-50h-185zM523 256h-56q0 58 39 84t98 26q58 0 98 -26.5t40 -85.5q0 -103 -136 -116q-21 -2 -27 -2.5t-21.5 -4t-20.5 -8.5t-10.5 -15.5t-5.5 -24.5v-27h217v-56h-273v84q0 99 136 106q84 4 84 64 q0 62 -82 62q-80 0 -80 -60z" />
<glyph unicode="&#xbe;" horiz-adv-x="771" d="M623 358h69v-231h44v-53h-44v-74h-55v74h-192l-4 47zM637 127v166l-131 -166h131zM182 515h-54v48h50q79 0 79 50q0 20 -20.5 36t-58.5 16q-30 0 -54 -13t-25 -44h-51q0 52 38 78t93 26t94 -25.5t39 -73.5q0 -27 -15 -47.5t-39 -27.5q28 -7 44.5 -29.5t16.5 -46.5 q0 -58 -41 -84t-100 -26q-56 0 -95 26t-40 81h57q2 -55 80 -55q83 0 83 58q0 19 -20 36t-61 17zM254 -3h-64l375 707h65z" />
<glyph unicode="&#xbf;" horiz-adv-x="582" d="M370 454q0 -31 -25 -43.5t-49.5 0.5t-24.5 44q0 19 10 31.5t24.5 15.5t29.5 0t25 -16t10 -32zM550 -3h-68q-1 -69 -53.5 -108t-128.5 -39q-81 0 -137.5 36t-56.5 108q0 56 29.5 85.5t81.5 47.5q81 27 111 72t30 146q-11 0 -34.5 0.5t-35.5 0.5q0 -14 -1.5 -33.5 t-1.5 -25.5q0 -40 -25 -64t-60.5 -37.5t-72 -31t-63.5 -57.5t-30 -103q1 -101 76 -154.5t190 -53.5q108 0 179 55.5t71 155.5z" />
<glyph unicode="&#xc0;" horiz-adv-x="740" d="M645 0l-72 162h-406l-72 -162h-74l314 700h70l314 -700h-74zM370 624l-175 -398h350zM244 899v2h82l74 -124v-4h-63z" />
<glyph unicode="&#xc1;" horiz-adv-x="740" d="M573 162l72 -162h74l-314 700h-70l-314 -700h74l72 162h406zM195 226l175 398l175 -398h-350zM492 901v-2l-94 -126h-61v4l75 124h80z" />
<glyph unicode="&#xc2;" horiz-adv-x="740" d="M573 162l72 -162h74l-314 700h-70l-314 -700h74l72 162h406zM195 226l175 398l175 -398h-350zM346 906h47l143 -133v-7h-71l-96 87l-96 -87h-71v7z" />
<glyph unicode="&#xc3;" horiz-adv-x="740" d="M645 0l-72 162h-406l-72 -162h-74l314 700h70l314 -700h-74zM370 624l-175 -398h350zM281 789l-45 18q8 39 35 57.5t63 11.5q11 -2 43 -18t52.5 -14.5t30.5 31.5l45 -18q-8 -41 -35 -58.5t-61 -10.5q-10 3 -28 11.5t-31 13.5t-27 7.5t-25 -5t-17 -26.5z" />
<glyph unicode="&#xc4;" horiz-adv-x="740" d="M573 162l72 -162h74l-314 700h-70l-314 -700h74l72 162h406zM195 226l175 398l175 -398h-350zM216 817q0 27 22 38.5t44 0t22 -38.5t-22 -38.5t-44 0t-22 38.5zM439 817q0 27 22 38.5t44 0t22 -38.5t-22 -38.5t-44 0t-22 38.5z" />
<glyph unicode="&#xc5;" horiz-adv-x="750" d="M264 790q0 48 33 75.5t79 27.5t80 -27.5t34 -75.5q0 -36 -19.5 -61.5t-52.5 -35.5l311 -693h-77l-74 165h-407l-73 -165h-77l311 694q-68 22 -68 96zM199 230h351l-92 210l-83 201l-85 -204zM375 847q-37 0 -52 -28.5t0 -57.5t52 -29q39 0 54.5 29t-0.5 57.5t-54 28.5z " />
<glyph unicode="&#xc6;" horiz-adv-x="914" d="M860 67v-67h-415v221h-243l-132 -221h-84l430 700h433v-65h-336v-250h320v-65h-320v-253h347zM243 287h202v167l2 174h-3z" />
<glyph unicode="&#xc7;" horiz-adv-x="710" d="M283 -185l35 32q26 -36 76 -38q52 0 62 36q10 29 -18.5 47t-76.5 4l-12 10l23 85q-153 14 -235 113t-83 242q-1 98 38.5 179t124 133t201.5 52q73 0 138.5 -26.5t109.5 -78.5l-43 -43q-86 84 -205 84q-139 0 -216.5 -87.5t-77.5 -211.5q0 -129 76.5 -211t217.5 -82 q124 0 210 86l45 -45q-104 -104 -251 -106l-13 -48q61 1 87 -31t15 -75q-9 -38 -41.5 -57.5t-73.5 -19.5q-81 2 -113 57z" />
<glyph unicode="&#xc8;" horiz-adv-x="655" d="M599 66v-66h-502v700h493v-66h-423v-251h404v-65h-404v-252h432zM256 902v2h82l74 -124v-4h-63z" />
<glyph unicode="&#xc9;" horiz-adv-x="655" d="M599 0v66h-432v252h404v65h-404v251h423v66h-493v-700h502zM467 901v-2l-94 -126h-61v4l75 124h80z" />
<glyph unicode="&#xca;" horiz-adv-x="655" d="M599 0v66h-432v252h404v65h-404v251h423v66h-493v-700h502zM327 915h47l141 -131v-7h-70l-95 86l-95 -86h-69v7z" />
<glyph unicode="&#xcb;" horiz-adv-x="655" d="M599 0v66h-432v252h404v65h-404v251h423v66h-493v-700h502zM208 824q0 27 22 38.5t44 0t22 -38.5t-22 -38.5t-44 0t-22 38.5zM431 824q0 27 22 38.5t44 0t22 -38.5t-22 -38.5t-44 0t-22 38.5z" />
<glyph unicode="&#xcc;" horiz-adv-x="264" d="M167 0h-70v700h70v-700zM28 898v2h74l67 -124v-3h-57z" />
<glyph unicode="&#xcd;" horiz-adv-x="264" d="M97 0h70v700h-70v-700zM234 900v-2l-84 -126h-55v4l67 124h72z" />
<glyph unicode="&#xce;" horiz-adv-x="264" d="M97 0h70v700h-70v-700zM104 901h42l129 -132v-7h-64l-86 86l-86 -86h-64v7z" />
<glyph unicode="&#xcf;" horiz-adv-x="264" d="M165 813q0 26 20.5 36.5t41.5 0t21 -36.5t-21 -36.5t-41.5 0t-20.5 36.5zM13 813q0 26 20.5 36.5t41.5 0t21 -36.5t-21 -36.5t-41.5 0t-20.5 36.5zM97 0h70v700h-70v-700z" />
<glyph unicode="&#xd0;" horiz-adv-x="754" d="M29 312v61h74v327h247q86 0 154.5 -29t110.5 -78t64 -109.5t22 -126.5q0 -69 -21 -131t-62 -113.5t-110.5 -82t-157.5 -30.5h-247v312h-74zM173 312v-247h177q57 0 104.5 17t79.5 45.5t54.5 66.5t32.5 79.5t9 84.5q-2 71 -31 132t-94 102.5t-155 41.5h-177v-261h172v-61 h-172z" />
<glyph unicode="&#xd1;" horiz-adv-x="757" d="M141 700l453 -568l-4 232v336h70v-700h-42l-453 563l2 -207v-356h-70v700h44zM290 779l-45 18q8 39 35 57.5t63 11.5q11 -2 43 -18t52.5 -14.5t30.5 31.5l45 -18q-8 -41 -35 -58.5t-61 -10.5q-10 3 -28 11.5t-31 13.5t-27 7.5t-25 -5t-17 -26.5z" />
<glyph unicode="&#xd2;" horiz-adv-x="813" d="M407 712q169 -1 262 -107.5t92 -256.5q0 -70 -22.5 -134t-65 -115t-111.5 -81.5t-155 -30.5q-114 0 -196.5 53t-120.5 133.5t-38 175.5q0 154 95.5 258.5t259.5 104.5zM122 348q1 -79 31.5 -144.5t96 -108t157.5 -42.5q135 0 209 86.5t75 208.5q0 126 -74 211.5 t-210 86.5q-136 0 -211.5 -84.5t-73.5 -213.5zM297 904v2h82l74 -124v-4h-63z" />
<glyph unicode="&#xd3;" horiz-adv-x="813" d="M407 712q-164 0 -259.5 -104.5t-95.5 -258.5q0 -95 38 -175.5t120.5 -133.5t196.5 -53q86 0 155 30.5t111.5 81.5t65 115t22.5 134q1 150 -92 256.5t-262 107.5zM122 348q-2 129 73.5 213.5t211.5 84.5q136 -1 210 -86.5t74 -211.5q-1 -122 -75 -208.5t-209 -86.5 q-92 0 -157.5 42.5t-96 108t-31.5 144.5zM525 906v-2l-94 -126h-61v4l75 124h80z" />
<glyph unicode="&#xd4;" horiz-adv-x="813" d="M407 712q-164 0 -259.5 -104.5t-95.5 -258.5q0 -95 38 -175.5t120.5 -133.5t196.5 -53q86 0 155 30.5t111.5 81.5t65 115t22.5 134q1 150 -92 256.5t-262 107.5zM122 348q-2 129 73.5 213.5t211.5 84.5q136 -1 210 -86.5t74 -211.5q-1 -122 -75 -208.5t-209 -86.5 q-92 0 -157.5 42.5t-96 108t-31.5 144.5zM394 921h47l143 -133v-7h-71l-96 87l-96 -87h-71v7z" />
<glyph unicode="&#xd5;" horiz-adv-x="813" d="M407 712q169 -1 262 -107.5t92 -256.5q0 -70 -22.5 -134t-65 -115t-111.5 -81.5t-155 -30.5q-114 0 -196.5 53t-120.5 133.5t-38 175.5q0 154 95.5 258.5t259.5 104.5zM122 348q1 -79 31.5 -144.5t96 -108t157.5 -42.5q135 0 209 86.5t75 208.5q0 126 -74 211.5 t-210 86.5q-136 0 -211.5 -84.5t-73.5 -213.5zM329 802l-45 18q8 39 35 57.5t63 11.5q11 -2 43 -18t52.5 -14.5t30.5 31.5l45 -18q-8 -41 -35 -58.5t-61 -10.5q-10 3 -28 11.5t-31 13.5t-27 7.5t-25 -5t-17 -26.5z" />
<glyph unicode="&#xd6;" horiz-adv-x="813" d="M407 712q-164 0 -259.5 -104.5t-95.5 -258.5q0 -95 38 -175.5t120.5 -133.5t196.5 -53q86 0 155 30.5t111.5 81.5t65 115t22.5 134q1 150 -92 256.5t-262 107.5zM122 348q-2 129 73.5 213.5t211.5 84.5q136 -1 210 -86.5t74 -211.5q-1 -122 -75 -208.5t-209 -86.5 q-92 0 -157.5 42.5t-96 108t-31.5 144.5zM256 816q0 27 22 38.5t44 0t22 -38.5t-22 -38.5t-44 0t-22 38.5zM479 816q0 27 22 38.5t44 0t22 -38.5t-22 -38.5t-44 0t-22 38.5z" />
<glyph unicode="&#xd7;" horiz-adv-x="457" d="M112 481l116 -117l117 118l40 -42l-118 -118l123 -121l-42 -41l-123 121l-119 -120l-39 42l120 120l-118 115z" />
<glyph unicode="&#xd8;" horiz-adv-x="813" d="M407 712q89 0 161 -35l49 85h72l-67 -116q68 -50 103.5 -129t35.5 -169q0 -70 -22.5 -134t-65 -115t-111.5 -81.5t-155 -30.5q-82 0 -149 27l-53 -91h-72l70 121q-74 48 -112.5 129.5t-38.5 175.5q0 97 38 177.5t120.5 133t196.5 52.5zM407 55q135 0 208.5 86.5 t74.5 206.5q0 153 -103 237l-294 -510q51 -20 114 -20zM407 644q-136 0 -210 -86t-73 -210q0 -73 30 -138t86 -104l293 512q-58 26 -126 26z" />
<glyph unicode="&#xd9;" horiz-adv-x="734" d="M575 700h70v-427q0 -136 -78 -208t-198 -72q-121 0 -200.5 72.5t-79.5 207.5v427h70v-427q0 -98 59.5 -156.5t150.5 -58.5q86 0 146 55.5t60 159.5v427zM260 897v2h82l74 -124v-4h-63z" />
<glyph unicode="&#xda;" horiz-adv-x="734" d="M645 700h-70v-427q0 -104 -60 -159.5t-146 -55.5q-91 0 -150.5 58.5t-59.5 156.5v427h-70v-427q0 -135 79.5 -207.5t200.5 -72.5q120 0 198 72t78 208v427zM475 898v-2l-94 -126h-61v4l75 124h80z" />
<glyph unicode="&#xdb;" horiz-adv-x="734" d="M645 700h-70v-427q0 -104 -60 -159.5t-146 -55.5q-91 0 -150.5 58.5t-59.5 156.5v427h-70v-427q0 -135 79.5 -207.5t200.5 -72.5q120 0 198 72t78 208v427zM346 912h47l143 -133v-7h-71l-96 87l-96 -87h-71v7z" />
<glyph unicode="&#xdc;" horiz-adv-x="734" d="M645 700h-70v-427q0 -104 -60 -159.5t-146 -55.5q-91 0 -150.5 58.5t-59.5 156.5v427h-70v-427q0 -135 79.5 -207.5t200.5 -72.5q120 0 198 72t78 208v427zM214 813q0 27 22 38.5t44 0t22 -38.5t-22 -38.5t-44 0t-22 38.5zM437 813q0 27 22 38.5t44 0t22 -38.5t-22 -38.5 t-44 0t-22 38.5z" />
<glyph unicode="&#xdd;" horiz-adv-x="663" d="M331 350l-223 350h-81v-2l269 -416v-282h70v282l273 416v2h-82zM430 900v-2l-94 -126h-61v4l75 124h80z" />
<glyph unicode="&#xde;" horiz-adv-x="682" d="M97 0v700h71v-121h242q57 0 103 -20t74 -52t43.5 -73.5t15.5 -85t-15.5 -85t-43.5 -73.5t-74 -52t-103 -20h-241v-118h-72zM169 512v-328h241q52 0 90 24.5t55 60.5t17 79t-17 79t-55 60.5t-90 24.5h-241z" />
<glyph unicode="&#xdf;" horiz-adv-x="605" d="M215 9v63q108 -47 192.5 -13t84.5 130q0 46 -17 79.5t-47 51t-63.5 25t-73.5 7.5h-75v60h71q38 0 70.5 8.5t60 36t27.5 70.5q0 68 -43 95.5t-104 27.5q-151 0 -151 -129v-230v-291h-69v521q0 98 62.5 144t157.5 46q94 0 154 -46t60 -138q0 -51 -28.5 -89.5t-79.5 -50.5 q80 -17 117.5 -69t37.5 -127q0 -71 -31.5 -119.5t-82.5 -67.5t-111 -17.5t-119 22.5z" />
<glyph unicode="&#xe0;" horiz-adv-x="634" d="M493 396v98h63v-494h-62v98q-31 -53 -84.5 -80.5t-111.5 -27.5q-108 0 -180 71t-72 186q0 114 72.5 184t180.5 70q60 0 113.5 -27.5t80.5 -77.5zM301 440q-80 0 -134 -54t-54 -139q0 -86 54 -140t134 -54q52 0 93.5 21.5t62.5 55.5t31 75t0 82.5t-31 75.5t-62.5 55.5 t-93.5 21.5zM206 705v2h82l74 -124v-4h-63z" />
<glyph unicode="&#xe1;" horiz-adv-x="634" d="M493 396q-27 50 -80.5 77.5t-113.5 27.5q-108 0 -180.5 -70t-72.5 -184q0 -115 72 -186t180 -71q58 0 111.5 27.5t84.5 80.5v-98h62v494h-63v-98zM301 440q52 0 93.5 -21.5t62.5 -55.5t31 -75.5t0 -82.5t-31 -75t-62.5 -55.5t-93.5 -21.5q-80 0 -134 54t-54 140 q0 85 54 139t134 54zM425 705v-2l-94 -126h-61v4l75 124h80z" />
<glyph unicode="&#xe2;" horiz-adv-x="634" d="M493 396q-27 50 -80.5 77.5t-113.5 27.5q-108 0 -180.5 -70t-72.5 -184q0 -115 72 -186t180 -71q58 0 111.5 27.5t84.5 80.5v-98h62v494h-63v-98zM301 440q52 0 93.5 -21.5t62.5 -55.5t31 -75.5t0 -82.5t-31 -75t-62.5 -55.5t-93.5 -21.5q-80 0 -134 54t-54 140 q0 85 54 139t134 54zM310 706h46l140 -130v-7h-69l-94 85l-94 -85h-70v7z" />
<glyph unicode="&#xe3;" horiz-adv-x="634" d="M493 396v98h63v-494h-62v98q-31 -53 -84.5 -80.5t-111.5 -27.5q-108 0 -180 71t-72 186q0 114 72.5 184t180.5 70q60 0 113.5 -27.5t80.5 -77.5zM301 440q-80 0 -134 -54t-54 -139q0 -86 54 -140t134 -54q52 0 93.5 21.5t62.5 55.5t31 75t0 82.5t-31 75.5t-62.5 55.5 t-93.5 21.5zM232 608l-45 18q8 39 35 57.5t63 11.5q11 -2 43 -18t52.5 -14.5t30.5 31.5l45 -18q-8 -41 -35 -58.5t-61 -10.5q-10 3 -28 11.5t-31 13.5t-27 7.5t-25 -5t-17 -26.5z" />
<glyph unicode="&#xe4;" horiz-adv-x="634" d="M493 396q-27 50 -80.5 77.5t-113.5 27.5q-108 0 -180.5 -70t-72.5 -184q0 -115 72 -186t180 -71q58 0 111.5 27.5t84.5 80.5v-98h62v494h-63v-98zM301 440q52 0 93.5 -21.5t62.5 -55.5t31 -75.5t0 -82.5t-31 -75t-62.5 -55.5t-93.5 -21.5q-80 0 -134 54t-54 140 q0 85 54 139t134 54zM173 654q0 27 22 38.5t44 0t22 -38.5t-22 -38.5t-44 0t-22 38.5zM396 654q0 27 22 38.5t44 0t22 -38.5t-22 -38.5t-44 0t-22 38.5z" />
<glyph unicode="&#xe5;" horiz-adv-x="634" d="M493 396v98h63v-494h-62v98q-31 -53 -84.5 -80.5t-111.5 -27.5q-108 0 -180 71t-72 186q0 114 72.5 184t180.5 70q60 0 113.5 -27.5t80.5 -77.5zM301 440q-80 0 -134 -54t-54 -139q0 -86 54 -140t134 -54q52 0 93.5 21.5t62.5 55.5t31 75t0 82.5t-31 75.5t-62.5 55.5 t-93.5 21.5zM209 656q0 42 31.5 66t75.5 24t76 -24t32 -66q0 -43 -31 -68t-78 -25t-76.5 24.5t-29.5 68.5zM315 705q-35 0 -49.5 -24.5t0 -49.5t49.5 -25q28 0 44 15.5t15.5 34t-16 34t-43.5 15.5z" />
<glyph unicode="&#xe6;" horiz-adv-x="1022" d="M980 219h-431q7 -75 60 -119.5t129 -44.5q47 0 94 18t72 50l46 -40q-35 -44 -93.5 -68t-119.5 -24q-131 0 -193 100l-1 -91h-53v97q-31 -53 -83 -80t-110 -27q-107 0 -179 71t-72 186q0 114 72.5 184t179.5 70q60 0 112.5 -27t80.5 -78l1 98h54v-94q65 103 193 103 q53 0 99.5 -18t81.5 -52t52 -89.5t8 -124.5zM301 439q-80 0 -134 -53.5t-54 -138.5q0 -86 54 -139.5t134 -53.5q53 0 94.5 21t63 55t31.5 75t0 82.5t-31.5 75.5t-63 55t-94.5 21zM549 276h369q-2 80 -51 123.5t-131 43.5q-72 0 -125 -44.5t-62 -122.5z" />
<glyph unicode="&#xe7;" horiz-adv-x="519" d="M169 -176l34 31q25 -34 67 -36q55 -4 67 34q9 29 -18 47t-74 5l-12 9l21 83q-91 14 -149 80.5t-58 169.5q0 117 72.5 185.5t183.5 68.5q102 0 177 -74l-44 -43q-56 54 -132 54q-82 0 -136 -51.5t-54 -139.5q0 -90 54 -141t135 -51q82 0 138 56l45 -44q-75 -75 -181 -75 l-11 -45q58 1 81.5 -30.5t14.5 -73.5q-9 -38 -41 -57t-72 -18q-75 0 -108 56z" />
<glyph unicode="&#xe8;" horiz-adv-x="586" d="M545 219h-430q7 -76 59.5 -120t127.5 -44q47 0 94.5 18t72.5 50l45 -40q-35 -44 -93 -68t-119 -24q-112 0 -184 70t-72 187q0 111 71.5 183t181.5 72q118 0 189 -72.5t57 -211.5zM115 276h367q-1 78 -53 122.5t-129 44.5q-75 0 -125 -44t-60 -123zM200 698v2h82l74 -124 v-4h-63z" />
<glyph unicode="&#xe9;" horiz-adv-x="586" d="M545 219q14 139 -57 211.5t-189 72.5q-110 0 -181.5 -72t-71.5 -183q0 -117 72 -187t184 -70q61 0 119 24t93 68l-45 40q-25 -32 -72.5 -50t-94.5 -18q-75 0 -127.5 44t-59.5 120h430zM115 276q10 79 60 123t125 44q77 0 129 -44.5t53 -122.5h-367zM420 700v-2l-94 -126 h-61v4l75 124h80z" />
<glyph unicode="&#xea;" horiz-adv-x="586" d="M545 219q14 139 -57 211.5t-189 72.5q-110 0 -181.5 -72t-71.5 -183q0 -117 72 -187t184 -70q61 0 119 24t93 68l-45 40q-25 -32 -72.5 -50t-94.5 -18q-75 0 -127.5 44t-59.5 120h430zM115 276q10 79 60 123t125 44q77 0 129 -44.5t53 -122.5h-367zM291 704h47l143 -133 v-7h-71l-96 87l-96 -87h-71v7z" />
<glyph unicode="&#xeb;" horiz-adv-x="586" d="M545 219q14 139 -57 211.5t-189 72.5q-110 0 -181.5 -72t-71.5 -183q0 -117 72 -187t184 -70q61 0 119 24t93 68l-45 40q-25 -32 -72.5 -50t-94.5 -18q-75 0 -127.5 44t-59.5 120h430zM115 276q10 79 60 123t125 44q77 0 129 -44.5t53 -122.5h-367zM159 655q0 27 22 38.5 t44 0t22 -38.5t-22 -38.5t-44 0t-22 38.5zM382 655q0 27 22 38.5t44 0t22 -38.5t-22 -38.5t-44 0t-22 38.5z" />
<glyph unicode="&#xec;" horiz-adv-x="225" d="M149 580h-66l-67 120v1h77l56 -117v-4zM147 0h-69v491h69v-491z" />
<glyph unicode="&#xed;" horiz-adv-x="225" d="M139 580h-66v4l56 117h77v-1zM78 0h69v491h-69v-491z" />
<glyph unicode="&#xee;" horiz-adv-x="225" d="M-8 579l103 123h31l102 -122v-7h-62l-57 69l-58 -69h-59v6zM78 0h69v491h-69v-491z" />
<glyph unicode="&#xef;" horiz-adv-x="225" d="M146 658q0 27 22 38t44 0t22 -38t-22 -38t-44 0t-22 38zM-3 658q0 27 22 38t44 0t22 -38t-22 -38t-44 0t-22 38zM78 0h69v491h-69v-491z" />
<glyph unicode="&#xf0;" horiz-adv-x="605" d="M301 51q88 0 137 56t49 132t-49 131.5t-137 55.5q-87 0 -136 -55.5t-49 -131.5t49 -132t136 -56zM287 485q104 4 177 -66q-13 45 -51 88t-84 73l-39 -54l-39 26l37 52q-46 27 -98 38l16 57q70 -20 120 -46l46 63l39 -27l-44 -60q186 -130 188 -377q2 -117 -67 -190 t-187 -73q-120 0 -187 73.5t-67 175.5q0 98 63 170.5t177 76.5z" />
<glyph unicode="&#xf1;" horiz-adv-x="608" d="M536 0h-68v277q0 78 -43 120t-118 42q-71 -1 -116.5 -49.5t-45.5 -120.5v-269h-67v494h64l2 -83q59 91 172 91q99 0 159.5 -58t60.5 -166v-278zM218 628l-45 17q8 36 35 53t62 11q11 -2 43 -17t52.5 -13.5t30.5 29.5l45 -17q-8 -38 -35 -54t-61 -10q-11 3 -28 10.5 t-30 12.5t-27 7.5t-25 -4.5t-17 -25z" />
<glyph unicode="&#xf2;" horiz-adv-x="600" d="M300 503q109 0 181.5 -72t72.5 -185q0 -114 -71.5 -184t-182.5 -70q-110 0 -182 70.5t-72 183.5q0 114 71 185.5t183 71.5zM300 442q-82 0 -134.5 -55t-52.5 -141t52.5 -138.5t134.5 -52.5q84 0 135.5 52.5t51.5 138.5t-52.5 141t-134.5 55zM198 698v2h82l74 -120v-3h-63 z" />
<glyph unicode="&#xf3;" horiz-adv-x="600" d="M300 503q-112 0 -183 -71.5t-71 -185.5q0 -113 72 -183.5t182 -70.5q111 0 182.5 70t71.5 184q0 113 -72.5 185t-181.5 72zM300 442q82 0 134.5 -55t52.5 -141t-51.5 -138.5t-135.5 -52.5q-82 0 -134.5 52.5t-52.5 138.5t52.5 141t134.5 55zM409 701v-2l-90 -118h-59v4 l72 116h77z" />
<glyph unicode="&#xf4;" horiz-adv-x="600" d="M300 503q-112 0 -183 -71.5t-71 -185.5q0 -113 72 -183.5t182 -70.5q111 0 182.5 70t71.5 184q0 113 -72.5 185t-181.5 72zM300 442q82 0 134.5 -55t52.5 -141t-51.5 -138.5t-135.5 -52.5q-82 0 -134.5 52.5t-52.5 138.5t52.5 141t134.5 55zM284 708h47l143 -133v-7h-71 l-96 87l-96 -87h-71v7z" />
<glyph unicode="&#xf5;" horiz-adv-x="600" d="M300 503q109 0 181.5 -72t72.5 -185q0 -114 -71.5 -184t-182.5 -70q-110 0 -182 70.5t-72 183.5q0 114 71 185.5t183 71.5zM300 442q-82 0 -134.5 -55t-52.5 -141t52.5 -138.5t134.5 -52.5q84 0 135.5 52.5t51.5 138.5t-52.5 141t-134.5 55zM215 625l-45 17q8 37 35.5 55 t63.5 12q11 -2 43 -17.5t52.5 -14.5t30.5 31l45 -18q-8 -40 -35 -56.5t-61 -9.5q-11 3 -28.5 11t-30.5 13t-27.5 7.5t-25.5 -5t-17 -25.5z" />
<glyph unicode="&#xf6;" horiz-adv-x="600" d="M300 503q-112 0 -183 -71.5t-71 -185.5q0 -113 72 -183.5t182 -70.5q111 0 182.5 70t71.5 184q0 113 -72.5 185t-181.5 72zM300 442q82 0 134.5 -55t52.5 -141t-51.5 -138.5t-135.5 -52.5q-82 0 -134.5 52.5t-52.5 138.5t52.5 141t134.5 55zM150 656q0 27 22 38.5t44 0 t22 -38.5t-22 -38.5t-44 0t-22 38.5zM373 656q0 27 22 38.5t44 0t22 -38.5t-22 -38.5t-44 0t-22 38.5z" />
<glyph unicode="&#xf7;" horiz-adv-x="559" d="M75 361v-61h409v61h-409zM234 168q0 30 23.5 42t47 0t23.5 -42q0 -29 -23.5 -41t-47 0t-23.5 41zM234 490q0 29 23.5 41t47 0t23.5 -41t-23.5 -41t-47 0t-23.5 41z" />
<glyph unicode="&#xf8;" horiz-adv-x="597" d="M298 503q58 0 109 -23l37 62h67l-55 -92q95 -72 95 -204q0 -113 -71.5 -183.5t-181.5 -70.5q-57 0 -104 19l-40 -68h-66l57 96q-99 70 -99 207q0 114 72 185.5t180 71.5zM298 441q-80 0 -132.5 -55t-52.5 -140q0 -97 67 -148l194 326q-39 17 -76 17zM298 56 q81 0 133.5 52.5t52.5 137.5q0 91 -62 146l-193 -324q31 -12 69 -12z" />
<glyph unicode="&#xf9;" horiz-adv-x="606" d="M71 494h67v-277q0 -77 43.5 -119.5t118.5 -41.5q71 0 116.5 48.5t45.5 120.5v269h66v-494h-62l-2 83q-58 -89 -175 -91q-98 0 -158 60t-60 164v278zM199 698v2h82l74 -124v-4h-63z" />
<glyph unicode="&#xfa;" horiz-adv-x="606" d="M138 494h-67v-278q0 -104 60 -164t158 -60q117 2 175 91l2 -83h62v494h-66v-269q0 -72 -45.5 -120.5t-116.5 -48.5q-75 -1 -118.5 41.5t-43.5 119.5v277zM411 700v-2l-94 -126h-61v4l75 124h80z" />
<glyph unicode="&#xfb;" horiz-adv-x="606" d="M138 494h-67v-278q0 -104 60 -164t158 -60q117 2 175 91l2 -83h62v494h-66v-269q0 -72 -45.5 -120.5t-116.5 -48.5q-75 -1 -118.5 41.5t-43.5 119.5v277zM285 704h45l139 -129v-6h-69l-93 84l-92 -84h-69v6z" />
<glyph unicode="&#xfc;" horiz-adv-x="606" d="M138 494h-67v-278q0 -104 60 -164t158 -60q117 2 175 91l2 -83h62v494h-66v-269q0 -72 -45.5 -120.5t-116.5 -48.5q-75 -1 -118.5 41.5t-43.5 119.5v277zM154 655q0 27 22 38.5t44 0t22 -38.5t-22 -38.5t-44 0t-22 38.5zM377 655q0 27 22 38.5t44 0t22 -38.5t-22 -38.5 t-44 0t-22 38.5z" />
<glyph unicode="&#xfd;" horiz-adv-x="544" d="M515 494h-74l-115 -273l-56 -142l-55 142l-105 273h-75l198 -488l-104 -242h73zM378 700v-1l-89 -119h-58v3l71 117h76z" />
<glyph unicode="&#xfe;" horiz-adv-x="636" d="M335 55q81 0 133.5 50t52.5 142q0 91 -52.5 140.5t-133.5 49.5q-80 0 -132.5 -54.5t-52.5 -136.5t53.5 -136.5t131.5 -54.5zM144 -206h-66v905h65l1 -310q29 52 83.5 82.5t118.5 30.5q106 -3 174.5 -70.5t68.5 -184.5q0 -121 -71 -189t-180 -68q-60 0 -112 28.5t-82 83.5 v-308z" />
<glyph unicode="&#xff;" horiz-adv-x="544" d="M515 494h-74l-115 -273l-56 -142l-55 142l-105 273h-75l198 -488l-104 -242h73zM129 662q0 26 21 36.5t42 0t21 -36.5t-21 -37t-42 0t-21 37zM341 662q0 26 21 36.5t42 0t21 -36.5t-21 -37t-42 0t-21 37z" />
<glyph unicode="&#x100;" horiz-adv-x="740" d="M645 0l-72 162h-406l-72 -162h-74l314 700h70l314 -700h-74zM370 624l-175 -398h350zM216 777v58h306v-58h-306z" />
<glyph unicode="&#x101;" horiz-adv-x="634" d="M493 396v98h63v-494h-62v98q-31 -53 -84.5 -80.5t-111.5 -27.5q-108 0 -180 71t-72 186q0 114 72.5 184t180.5 70q60 0 113.5 -27.5t80.5 -77.5zM301 440q-80 0 -134 -54t-54 -139q0 -86 54 -140t134 -54q52 0 93.5 21.5t62.5 55.5t31 75t0 82.5t-31 75.5t-62.5 55.5 t-93.5 21.5zM169 620v55h298v-55h-298z" />
<glyph unicode="&#x102;" horiz-adv-x="740" d="M645 0l-72 162h-406l-72 -162h-74l314 700h70l314 -700h-74zM370 624l-175 -398h350zM449 893h58q2 -59 -35 -91t-102 -32q-63 0 -100 33t-35 90h55q0 -31 18.5 -52t61.5 -21q42 0 60.5 21t18.5 52z" />
<glyph unicode="&#x103;" horiz-adv-x="634" d="M493 396v98h63v-494h-62v98q-31 -53 -84.5 -80.5t-111.5 -27.5q-108 0 -180 71t-72 186q0 114 72.5 184t180.5 70q60 0 113.5 -27.5t80.5 -77.5zM301 440q-80 0 -134 -54t-54 -139q0 -86 54 -140t134 -54q52 0 93.5 21.5t62.5 55.5t31 75t0 82.5t-31 75.5t-62.5 55.5 t-93.5 21.5zM398 700h56q2 -62 -34 -95.5t-99 -33.5q-61 0 -97 34.5t-34 94.5h54q0 -77 77 -77q40 0 58.5 22t18.5 55z" />
<glyph unicode="&#x104;" horiz-adv-x="745" d="M546 230l-174 399l-176 -399h350zM721 -66l40 -25q-31 -59 -113 -68q-44 -5 -76 11.5t-41 44t-4.5 56.5t32.5 53t72 31l-56 125h-408l-72 -162h-74l314 700h74l315 -701q-55 4 -78 0q-43 -7 -60.5 -34.5t-0.5 -51.5t59 -22q49 2 77 43z" />
<glyph unicode="&#x105;" horiz-adv-x="634" d="M588 -97l39 -25q-15 -30 -46 -48t-67 -20q-44 -2 -75.5 15t-41.5 48q-14 37 10 76t85 52l-3 96q-31 -53 -82 -80t-109 -27q-111 0 -181.5 70.5t-70.5 186.5q0 114 72.5 184t180.5 70q60 0 111.5 -27t78.5 -78l1 98h66v-529q-68 6 -95 -32q-19 -29 3 -51q12 -12 33 -15 q20 -5 46 3.5t45 32.5zM301 439q-81 0 -134.5 -51.5t-53.5 -140.5t53.5 -141t134.5 -52q52 0 93.5 21t62.5 55t31 75t0 82.5t-31 75.5t-62.5 55t-93.5 21z" />
<glyph unicode="&#x106;" horiz-adv-x="709" d="M672 95l-45 45q-86 -86 -210 -86q-141 0 -217.5 82t-76.5 211q0 124 77.5 211.5t216.5 87.5q119 0 205 -84l43 43q-44 52 -109.5 78.5t-138.5 26.5q-117 0 -201.5 -52t-124 -133t-38.5 -179q1 -154 95.5 -255.5t268.5 -101.5q149 0 255 106zM512 900v-2l-89 -120h-58v4 l71 118h76z" />
<glyph unicode="&#x107;" horiz-adv-x="516" d="M485 67l-46 45q-56 -56 -137 -56t-135 50.5t-54 140.5q0 88 54 139.5t136 51.5q76 0 130 -53l44 43q-74 73 -175 73q-111 0 -183.5 -68.5t-72.5 -185.5t73.5 -186t182.5 -69q107 0 183 75zM385 700v-1l-78 -111h-52v4l63 108h67z" />
<glyph unicode="&#x108;" horiz-adv-x="709" d="M672 95l-45 45q-86 -86 -210 -86q-141 0 -217.5 82t-76.5 211q0 124 77.5 211.5t216.5 87.5q119 0 205 -84l43 43q-44 52 -109.5 78.5t-138.5 26.5q-117 0 -201.5 -52t-124 -133t-38.5 -179q1 -154 95.5 -255.5t268.5 -101.5q149 0 255 106zM394 918h45l139 -129v-6h-69 l-93 84l-92 -84h-69v6z" />
<glyph unicode="&#x109;" horiz-adv-x="516" d="M485 67l-46 45q-56 -56 -137 -56t-135 50.5t-54 140.5q0 88 54 139.5t136 51.5q76 0 130 -53l44 43q-74 73 -175 73q-111 0 -183.5 -68.5t-72.5 -185.5t73.5 -186t182.5 -69q107 0 183 75zM273 703h43l129 -124v-6h-64l-87 80l-87 -80h-64v6z" />
<glyph unicode="&#x10a;" horiz-adv-x="709" d="M672 95l-45 45q-86 -86 -210 -86q-141 0 -217.5 82t-76.5 211q0 124 77.5 211.5t216.5 87.5q119 0 205 -84l43 43q-44 52 -109.5 78.5t-138.5 26.5q-117 0 -201.5 -52t-124 -133t-38.5 -179q1 -154 95.5 -255.5t268.5 -101.5q149 0 255 106zM363 823q0 30 26 42t52 0 t26 -42t-26 -42t-52 0t-26 42z" />
<glyph unicode="&#x10b;" horiz-adv-x="516" d="M485 67l-46 45q-56 -56 -137 -56t-135 50.5t-54 140.5q0 88 54 139.5t136 51.5q76 0 130 -53l44 43q-74 73 -175 73q-111 0 -183.5 -68.5t-72.5 -185.5t73.5 -186t182.5 -69q107 0 183 75zM253 648q0 26 23 37t46 0t23 -37t-23 -37t-46 0t-23 37z" />
<glyph unicode="&#x10c;" horiz-adv-x="709" d="M672 95l-45 45q-86 -86 -210 -86q-141 0 -217.5 82t-76.5 211q0 124 77.5 211.5t216.5 87.5q119 0 205 -84l43 43q-44 52 -109.5 78.5t-138.5 26.5q-117 0 -201.5 -52t-124 -133t-38.5 -179q1 -154 95.5 -255.5t268.5 -101.5q149 0 255 106zM257 900v7h66l89 -82l91 82 h65v-7l-135 -124h-43z" />
<glyph unicode="&#x10d;" horiz-adv-x="516" d="M485 67l-46 45q-56 -56 -137 -56t-135 50.5t-54 140.5q0 88 54 139.5t136 51.5q76 0 130 -53l44 43q-74 73 -175 73q-111 0 -183.5 -68.5t-72.5 -185.5t73.5 -186t182.5 -69q107 0 183 75zM143 694v7h65l88 -82l90 82h64v-7l-132 -123h-44z" />
<glyph unicode="&#x10e;" horiz-adv-x="748" d="M344 700h-247v-700h247q88 0 157.5 30.5t110.5 82t62 113.5t21 131q0 66 -22 126.5t-64 109.5t-110.5 78t-154.5 29zM167 65v569h177q90 0 155 -41.5t94 -102.5t31 -132q1 -43 -9 -84.5t-32.5 -79.5t-54.5 -66.5t-79.5 -45.5t-104.5 -17h-177zM165 900v7h68l91 -84l94 84 h67v-7l-139 -128h-45z" />
<glyph unicode="&#x10f;" horiz-adv-x="635" d="M300 439q-81 0 -133.5 -50.5t-52.5 -141.5q0 -90 53 -141t133 -51t133.5 54t53.5 139q0 84 -53.5 137.5t-133.5 53.5zM490 700h67v-700h-65l-2 99q-29 -52 -81.5 -80t-112.5 -28q-109 0 -179 68t-70 188t70 188t179 68q61 0 114 -27.5t80 -79.5v304zM602 540l41 161h65 l-56 -161h-50z" />
<glyph unicode="&#x110;" horiz-adv-x="754" d="M29 324v58h74v318h247q86 0 154.5 -29t110.5 -78t64 -109.5t22 -126.5q0 -69 -21 -131t-62 -113.5t-110.5 -82t-157.5 -30.5h-247v324h-74zM173 324v-259h177q57 0 104.5 17t79.5 45.5t54.5 66.5t32.5 79.5t9 84.5q-2 71 -31 132t-94 102.5t-155 41.5h-177v-252h133v-58 h-133z" />
<glyph unicode="&#x111;" horiz-adv-x="635" d="M490 700h67v-71h73v-51h-73v-578h-65l-2 99q-29 -52 -81.5 -80t-112.5 -28q-109 0 -179 68t-70 188t70 188t179 68q61 0 114 -27.5t80 -79.5v182h-108v51h108v71zM300 439q-81 0 -133.5 -50.5t-52.5 -141.5q0 -90 53 -141t133 -51t133.5 54t53.5 139q0 84 -53.5 137.5 t-133.5 53.5z" />
<glyph unicode="&#x112;" horiz-adv-x="655" d="M599 66v-66h-502v700h493v-66h-423v-251h404v-65h-404v-252h432zM209 787v57h277v-57h-277z" />
<glyph unicode="&#x113;" horiz-adv-x="586" d="M545 219h-430q7 -76 59.5 -120t127.5 -44q47 0 94.5 18t72.5 50l45 -40q-35 -44 -93 -68t-119 -24q-112 0 -184 70t-72 187q0 111 71.5 183t181.5 72q118 0 189 -72.5t57 -211.5zM115 276h367q-1 78 -53 122.5t-129 44.5q-75 0 -125 -44t-60 -123zM163 621v54h281v-54 h-281z" />
<glyph unicode="&#x114;" horiz-adv-x="655" d="M599 66v-66h-502v700h493v-66h-423v-251h404v-65h-404v-252h432zM435 899h58q2 -60 -35.5 -93t-102.5 -33q-63 0 -100.5 33.5t-35.5 92.5h56q0 -32 18.5 -53.5t61.5 -21.5q42 0 61 21.5t19 53.5z" />
<glyph unicode="&#x115;" horiz-adv-x="586" d="M545 219h-430q7 -76 59.5 -120t127.5 -44q47 0 94.5 18t72.5 50l45 -40q-35 -44 -93 -68t-119 -24q-112 0 -184 70t-72 187q0 111 71.5 183t181.5 72q118 0 189 -72.5t57 -211.5zM115 276h367q-1 78 -53 122.5t-129 44.5q-75 0 -125 -44t-60 -123zM380 700h56 q2 -60 -34 -92.5t-99 -32.5q-61 0 -97 33t-34 92h54q0 -32 17.5 -53.5t59.5 -21.5q40 0 58.5 21.5t18.5 53.5z" />
<glyph unicode="&#x116;" horiz-adv-x="655" d="M599 0v66h-432v252h404v65h-404v251h423v66h-493v-700h502zM305 812q0 30 23.5 42t47.5 0t24 -42t-24 -42t-47.5 0t-23.5 42z" />
<glyph unicode="&#x117;" horiz-adv-x="586" d="M545 219q14 139 -57 211.5t-189 72.5q-110 0 -181.5 -72t-71.5 -183q0 -117 72 -187t184 -70q61 0 119 24t93 68l-45 40q-25 -32 -72.5 -50t-94.5 -18q-75 0 -127.5 44t-59.5 120h430zM115 276q10 79 60 123t125 44q77 0 129 -44.5t53 -122.5h-367zM260 660q0 30 24 42 t47.5 0t23.5 -42t-23.5 -42t-47.5 0t-24 42z" />
<glyph unicode="&#x118;" horiz-adv-x="655" d="M599 -79l36 -37q-27 -36 -72 -47.5t-85.5 3t-55.5 49.5q-7 16 -7.5 34.5t11.5 41t39 35.5h-368v700h493v-66h-425v-249h406v-66h-406v-252h434v-67q-33 1 -59 -4t-39.5 -14.5t-21.5 -21t-7 -23t5 -21.5q15 -26 50.5 -27t71.5 32z" />
<glyph unicode="&#x119;" horiz-adv-x="587" d="M545 219h-430q7 -76 59.5 -120t127.5 -44q47 0 94.5 18t72.5 50l45 -40q-39 -49 -109 -74q-28 -12 -32 -40.5t14 -41.5q30 -25 67.5 -15.5t55.5 39.5l40 -25q-30 -55 -97 -68.5t-107 27.5q-23 23 -25 52.5t23 57.5q-22 -4 -61 -1q-104 6 -170.5 74.5t-66.5 179.5 q0 110 72 182.5t181 72.5q117 0 188.5 -72.5t57.5 -211.5zM115 276h367q-1 80 -50.5 123.5t-131.5 43.5q-72 0 -124 -44.5t-61 -122.5z" />
<glyph unicode="&#x11a;" horiz-adv-x="655" d="M599 0v66h-432v252h404v65h-404v251h423v66h-493v-700h502zM197 900v7h68l93 -85l94 85h67v-7l-139 -129h-45z" />
<glyph unicode="&#x11b;" horiz-adv-x="586" d="M545 219q14 139 -57 211.5t-189 72.5q-110 0 -181.5 -72t-71.5 -183q0 -117 72 -187t184 -70q61 0 119 24t93 68l-45 40q-25 -32 -72.5 -50t-94.5 -18q-75 0 -127.5 44t-59.5 120h430zM115 276q10 79 60 123t125 44q77 0 129 -44.5t53 -122.5h-367zM142 694v7h68l91 -84 l93 84h67v-7l-138 -127h-45z" />
<glyph unicode="&#x11c;" horiz-adv-x="747" d="M631 562l42 45q-106 105 -257 105q-164 0 -264 -102t-99 -264q0 -151 94.5 -253.5t268.5 -102.5q156 0 268 115v271h-296v-65h229v-177q-85 -76 -201 -76q-140 0 -216.5 83.5t-76.5 205.5q-1 125 77.5 212t215.5 87q59 0 116.5 -21.5t98.5 -62.5zM393 916h45l136 -128v-6 h-68l-91 83l-92 -83h-67v6z" />
<glyph unicode="&#x11d;" horiz-adv-x="611" d="M452 466l52 62l46 -38l-53 -63q32 -36 49 -73t17 -91q0 -70 -38.5 -128t-110.5 -79q146 -39 146 -162q0 -88 -74.5 -138t-179.5 -50q-109 0 -180 55t-70 149h67q-1 -66 53 -102.5t130 -36.5t131 31t55 92t-55 93.5t-131 32.5q-116 0 -187.5 65t-71.5 178t78.5 178 t180.5 65q89 0 146 -40zM306 443q-76 0 -133.5 -46.5t-57.5 -133.5q0 -88 53.5 -134.5t137.5 -46.5t137 53t53 128q0 87 -55.5 133.5t-134.5 46.5zM302 714h45l136 -127v-6h-68l-91 82l-91 -82h-68v6z" />
<glyph unicode="&#x11e;" horiz-adv-x="747" d="M673 607l-42 -45q-41 41 -98.5 62.5t-116.5 21.5q-137 0 -215.5 -87t-77.5 -212q0 -122 76.5 -205.5t216.5 -83.5q116 0 201 76v177h-229v65h296v-271q-112 -115 -268 -115q-174 0 -268.5 102.5t-94.5 253.5q-1 162 99 264t264 102q151 0 257 -105zM493 898h56 q2 -57 -34 -88.5t-100 -31.5q-61 0 -97.5 32t-34.5 88h55q0 -30 17.5 -51t59.5 -21q41 0 59.5 21t18.5 51z" />
<glyph unicode="&#x11f;" horiz-adv-x="611" d="M452 466l52 62l46 -38l-53 -63q32 -36 49 -73t17 -91q0 -70 -38.5 -128t-110.5 -79q146 -39 146 -162q0 -88 -74.5 -138t-179.5 -50q-109 0 -180 55t-70 149h67q-1 -66 53 -102.5t130 -36.5t131 31t55 92t-55 93.5t-131 32.5q-116 0 -187.5 65t-71.5 178t78.5 178 t180.5 65q89 0 146 -40zM306 443q-76 0 -133.5 -46.5t-57.5 -133.5q0 -88 53.5 -134.5t137.5 -46.5t137 53t53 128q0 87 -55.5 133.5t-134.5 46.5zM391 710h56q2 -62 -34 -95.5t-99 -33.5q-61 0 -97 34.5t-34 94.5h54q0 -77 77 -77q40 0 58.5 22t18.5 55z" />
<glyph unicode="&#x120;" horiz-adv-x="747" d="M631 562l42 45q-106 105 -257 105q-164 0 -264 -102t-99 -264q0 -151 94.5 -253.5t268.5 -102.5q156 0 268 115v271h-296v-65h229v-177q-85 -76 -201 -76q-140 0 -216.5 83.5t-76.5 205.5q-1 125 77.5 212t215.5 87q59 0 116.5 -21.5t98.5 -62.5zM363 820q0 28 24.5 40 t49 0t24.5 -40q0 -22 -15.5 -34t-33.5 -12t-33.5 12t-15.5 34z" />
<glyph unicode="&#x121;" horiz-adv-x="611" d="M452 466l52 62l46 -38l-53 -63q32 -36 49 -73t17 -91q0 -70 -38.5 -128t-110.5 -79q146 -39 146 -162q0 -88 -74.5 -138t-179.5 -50q-109 0 -180 55t-70 149h67q-1 -66 53 -102.5t130 -36.5t131 31t55 92t-55 93.5t-131 32.5q-116 0 -187.5 65t-71.5 178t78.5 178 t180.5 65q89 0 146 -40zM306 443q-76 0 -133.5 -46.5t-57.5 -133.5q0 -88 53.5 -134.5t137.5 -46.5t137 53t53 128q0 87 -55.5 133.5t-134.5 46.5zM273 660q0 28 24.5 40t49 0t24.5 -40q0 -22 -15.5 -34t-33.5 -12t-33.5 12t-15.5 34z" />
<glyph unicode="&#x122;" horiz-adv-x="747" d="M673 607l-42 -45q-41 41 -98.5 62.5t-116.5 21.5q-137 0 -215.5 -87t-77.5 -212q0 -122 76.5 -205.5t216.5 -83.5q116 0 201 76v177h-229v65h296v-271q-112 -115 -268 -115q-174 0 -268.5 102.5t-94.5 253.5q-1 162 99 264t264 102q151 0 257 -105zM451 -127 q0 -11 -5.5 -28t-17.5 -46.5t-20 -51.5h-50l28 87q-30 9 -30 40q0 17 10 28.5t24 14.5t27.5 0.5t23.5 -14.5t10 -30z" />
<glyph unicode="&#x123;" horiz-adv-x="611" d="M257 652q0 11 5 26.5t16.5 44.5t18.5 48h47l-26 -82q28 -9 28 -38q0 -26 -22 -37t-44.5 -0.5t-22.5 38.5zM452 466l52 62l46 -38l-53 -63q32 -36 49 -73t17 -91q0 -70 -38.5 -128t-110.5 -79q146 -39 146 -162q0 -88 -74.5 -138t-179.5 -50q-109 0 -180 55t-70 149h67 q-1 -66 53 -102.5t130 -36.5t131 31t55 92t-55 93.5t-131 32.5q-116 0 -187.5 65t-71.5 178t78.5 178t180.5 65q89 0 146 -40zM306 443q-76 0 -133.5 -46.5t-57.5 -133.5q0 -88 53.5 -134.5t137.5 -46.5t137 53t53 128q0 87 -55.5 133.5t-134.5 46.5z" />
<glyph unicode="&#x124;" horiz-adv-x="758" d="M591 0h70v700h-70v-324h-424v324h-70v-700h70v310h424v-310zM353 910h46l139 -130v-7h-69l-94 85l-93 -85h-69v7z" />
<glyph unicode="&#x125;" horiz-adv-x="594" d="M144 700h-66v-700h67v266q0 73 46 122t117 49q73 0 110 -42t37 -118v-277h67v277q0 103 -52.5 163.5t-153.5 60.5q-116 -2 -172 -93v292zM270 902h45l137 -129v-6h-68l-92 84l-92 -84h-68v6z" />
<glyph unicode="&#x126;" horiz-adv-x="773" d="M670 0h-73v309h-420v-309h-74v528h-72v51h72v121h74v-121h420v121h73v-121h73v-51h-73v-528zM177 376h420v152h-420v-152z" />
<glyph unicode="&#x127;" horiz-adv-x="594" d="M14 572v52h64v76h66v-76h122v-52h-122v-164q56 91 172 93q101 0 153.5 -60.5t52.5 -163.5v-277h-67v277q0 76 -37 118t-110 42q-71 0 -117 -49t-46 -122v-266h-67v572h-64z" />
<glyph unicode="&#x128;" horiz-adv-x="264" d="M167 0h-70v700h70v-700zM44 786l-44 18q8 37 34.5 55.5t61.5 11.5q11 -2 42 -17.5t51 -14.5t30 31l44 -18q-8 -40 -34.5 -57t-59.5 -10q-10 3 -27.5 11t-30 13.5t-26.5 7.5t-24.5 -5.5t-16.5 -25.5z" />
<glyph unicode="&#x129;" horiz-adv-x="225" d="M147 0h-69v491h69v-491zM40 635l-37 17q7 38 28.5 56t50.5 11q9 -2 27 -12t30.5 -16.5t25.5 -1t19 28.5l36 -17q-6 -40 -28 -56.5t-49 -10.5q-9 3 -23 11t-24.5 13.5t-22 7.5t-20 -5.5t-13.5 -25.5z" />
<glyph unicode="&#x12a;" horiz-adv-x="264" d="M167 0h-70v700h70v-700zM10 766v56h243v-56h-243z" />
<glyph unicode="&#x12b;" horiz-adv-x="225" d="M147 0h-69v491h69v-491zM11 643v55h202v-55h-202z" />
<glyph unicode="&#x12c;" horiz-adv-x="264" d="M167 0h-70v700h70v-700zM203 895h51q2 -57 -31 -88t-91 -31q-55 0 -88 31.5t-32 87.5h50q0 -71 70 -71q37 0 54 20.5t17 50.5z" />
<glyph unicode="&#x12d;" horiz-adv-x="225" d="M173 692h50q1 -58 -30 -89t-80 -31q-116 0 -113 120h48q0 -69 64 -69q61 0 61 69zM147 0h-69v491h69v-491z" />
<glyph unicode="&#x12e;" horiz-adv-x="269" d="M137 -101q21 -5 46.5 2.5t43.5 31.5l40 -26q-17 -32 -50.5 -49.5t-71.5 -18.5q-47 -1 -77.5 21.5t-35.5 57.5q-6 32 11 62.5t56 43.5v676h73v-700q-65 -1 -79 -40q-10 -31 16 -50q13 -9 28 -11z" />
<glyph unicode="&#x12f;" horiz-adv-x="226" d="M148 496h-67v-472q-36 -12 -51.5 -41t-10.5 -59t24 -50q40 -40 98 -33.5t84 54.5l-34 25q-23 -27 -56 -31t-53 18q-25 26 -6 59t72 34v496zM68 649q0 30 24 42t47.5 0t23.5 -42t-23.5 -42t-47.5 0t-24 42z" />
<glyph unicode="&#x130;" horiz-adv-x="264" d="M97 0h70v700h-70v-700zM85 816q0 28 24.5 40t49.5 0t25 -40q0 -22 -15.5 -34t-34 -12t-34 12t-15.5 34z" />
<glyph unicode="&#x131;" horiz-adv-x="225" d="M147 0h-69v491h69v-491z" />
<glyph unicode="&#x132;" horiz-adv-x="948" d="M167 0h-70v700h70v-700zM532 700h327v-427q0 -130 -79 -206t-206 -76q-125 0 -204.5 76.5t-79.5 203.5h70q0 -97 59 -155.5t155 -58.5q97 0 156 57.5t59 158.5v362h-257v65z" />
<glyph unicode="&#x133;" horiz-adv-x="446" d="M145 496h-67v-496h67v496zM65 649q0 30 23.5 42t47.5 0t24 -42t-23.5 -42t-47.5 0t-24 42zM368 495h-67v-564q0 -38 -3.5 -59t-20 -37.5t-48.5 -16.5q-37 0 -71 18l-21 -55q48 -28 94 -28q77 0 107 45.5t30 132.5v564zM287 653q0 30 23.5 42t47.5 0t24 -42t-24 -42 t-47.5 0t-23.5 42z" />
<glyph unicode="&#x134;" horiz-adv-x="684" d="M595 700h-327v-65h257v-362q0 -101 -59 -158.5t-156 -57.5q-96 0 -155 58.5t-59 155.5h-70q0 -127 79.5 -203.5t204.5 -76.5q127 0 206 76t79 206v427zM377 910h46l139 -129v-7h-69l-94 84l-93 -84h-69v7z" />
<glyph unicode="&#x135;" horiz-adv-x="223" d="M145 495h-67v-564q0 -38 -3.5 -59t-20 -37.5t-48.5 -16.5q-36 0 -71 18l-21 -55q48 -28 94 -28q77 0 107 45.5t30 132.5v564zM90 704h35l107 -130v-7h-56l-69 81l-71 -81h-54v7z" />
<glyph unicode="&#x136;" horiz-adv-x="606" d="M575 700v-5l-341 -331l371 -359v-5h-87l-351 339v-339h-70v700h70v-315l325 315h83zM382 -114q0 -11 -5.5 -27t-17.5 -45t-19 -50h-48l27 84q-29 9 -29 39q0 27 23 38.5t46 0.5t23 -40z" />
<glyph unicode="&#x137;" horiz-adv-x="482" d="M78 700h66v-418l216 212h85v-4l-237 -229l266 -257v-4h-86l-244 237v-237h-66v700zM305 -109q0 -10 -5 -25t-16 -41t-18 -46h-44l25 77q-27 8 -27 36q0 25 21 35.5t42.5 0t21.5 -36.5z" />
<glyph unicode="&#x138;" horiz-adv-x="483" d="M78 494h67v-212l216 212h85v-4l-237 -229l266 -257v-4h-83l-247 237v-237h-67v494z" />
<glyph unicode="&#x139;" horiz-adv-x="573" d="M167 700h-70v-700h459v66h-389v634zM257 898v-2l-88 -118h-57v4l70 116h75z" />
<glyph unicode="&#x13a;" horiz-adv-x="237" d="M152 700h-67v-700h67v700zM216 877v-1l-83 -111h-53v3l65 109h71z" />
<glyph unicode="&#x13b;" horiz-adv-x="573" d="M97 700h70v-634h389v-66h-459v700zM371 -120q0 -10 -5 -25.5t-16 -42t-18 -47.5h-46l26 79q-28 9 -28 37q0 25 22 36t43.5 0.5t21.5 -37.5z" />
<glyph unicode="&#x13c;" horiz-adv-x="237" d="M85 700h67v-700h-67v700zM160 -120q0 -10 -5 -25.5t-16 -42t-18 -47.5h-46l26 79q-28 9 -28 37q0 25 21.5 36t43.5 0.5t22 -37.5z" />
<glyph unicode="&#x13d;" horiz-adv-x="574" d="M97 700h70v-634h389v-66h-459v700zM366 532l42 166h67l-57 -166h-52z" />
<glyph unicode="&#x13e;" horiz-adv-x="230" d="M85 700h67v-700h-67v700zM199 534l42 167h67l-57 -167h-52z" />
<glyph unicode="&#x13f;" horiz-adv-x="573" d="M97 700h70v-634h389v-66h-459v700zM308 306q0 30 24 42.5t48.5 0t24.5 -42.5t-24.5 -42.5t-48.5 0t-24 42.5z" />
<glyph unicode="&#x140;" horiz-adv-x="327" d="M85 700h67v-700h-67v700zM232 299q0 30 24 42.5t48.5 0t24.5 -42.5t-24.5 -42.5t-48.5 0t-24 42.5z" />
<glyph unicode="&#x141;" horiz-adv-x="577" d="M171 381l114 49v-62l-114 -49v-255h391v-64h-459v288l-72 -30v61l72 31v350h68v-319z" />
<glyph unicode="&#x142;" horiz-adv-x="267" d="M245 410v-60l-79 -33v-317h-67v288l-70 -28v58l70 30v352h67v-323z" />
<glyph unicode="&#x143;" horiz-adv-x="757" d="M594 132l-453 568h-44v-700h70v356l-2 207l453 -563h42v700h-70v-336zM475 896v-2l-92 -121h-59v3l73 120h78z" />
<glyph unicode="&#x144;" horiz-adv-x="608" d="M468 0h68v278q0 108 -60.5 166t-159.5 58q-113 0 -172 -91l-2 83h-64v-494h67v269q0 72 45.5 120.5t116.5 49.5q75 0 118 -42t43 -120v-277zM412 703v-1l-89 -119h-58v3l71 117h76z" />
<glyph unicode="&#x145;" horiz-adv-x="757" d="M141 700l453 -568l-4 232v336h70v-700h-42l-453 563l2 -207v-356h-70v700h44zM422 -105q0 -10 -5 -25.5t-16 -42t-18 -47.5h-46l26 79q-28 9 -28 37q0 25 21.5 36t43.5 0.5t22 -37.5z" />
<glyph unicode="&#x146;" horiz-adv-x="608" d="M536 0h-68v277q0 78 -43 120t-118 42q-71 -1 -116.5 -49.5t-45.5 -120.5v-269h-67v494h64l2 -83q59 91 172 91q99 0 159.5 -58t60.5 -166v-278zM348 -105q0 -10 -5 -25.5t-16 -42t-18 -47.5h-46l26 79q-28 9 -28 37q0 25 21.5 36t43.5 0.5t22 -37.5z" />
<glyph unicode="&#x147;" horiz-adv-x="757" d="M594 132l-453 568h-44v-700h70v356l-2 207l453 -563h42v700h-70v-336zM225 900v7h68l91 -84l93 84h67v-7l-138 -127h-45z" />
<glyph unicode="&#x148;" horiz-adv-x="608" d="M468 0h68v278q0 108 -60.5 166t-159.5 58q-113 0 -172 -91l-2 83h-64v-494h67v269q0 72 45.5 120.5t116.5 49.5q75 0 118 -42t43 -120v-277zM164 699v6h65l87 -80l89 80h63v-6l-131 -122h-43z" />
<glyph unicode="&#x149;" horiz-adv-x="608" d="M536 0h-68v277q0 78 -43 120t-118 42q-71 -1 -116.5 -49.5t-45.5 -120.5v-269h-67v494h64l2 -83q59 91 172 91q99 0 159.5 -58t60.5 -166v-278z" />
<glyph unicode="&#x14a;" horiz-adv-x="757" d="M141 700l449 -565v565h70v-726q1 -86 -30 -131t-110 -45q-45 0 -90 26l22 55q33 -18 67 -18q46 0 61 28.5t15 84.5v53l-426 532v-559h-72v700h44z" />
<glyph unicode="&#x14b;" horiz-adv-x="608" d="M468 -23v300q0 77 -43 119.5t-118 42.5q-71 -1 -116.5 -49.5t-45.5 -120.5v-269h-67v494h64l2 -83q59 91 172 91q98 0 159 -60t61 -164v-301q0 -85 -31 -130t-109 -45q-42 0 -88 26l22 55q35 -19 64 -18q46 0 60 28t14 84z" />
<glyph unicode="&#x14c;" horiz-adv-x="813" d="M407 712q169 -1 262 -107.5t92 -256.5q0 -70 -22.5 -134t-65 -115t-111.5 -81.5t-155 -30.5q-114 0 -196.5 53t-120.5 133.5t-38 175.5q0 154 95.5 258.5t259.5 104.5zM122 348q1 -79 31.5 -144.5t96 -108t157.5 -42.5q135 0 209 86.5t75 208.5q0 126 -74 211.5 t-210 86.5q-136 0 -211.5 -84.5t-73.5 -213.5zM269 797v59h292v-59h-292z" />
<glyph unicode="&#x14d;" horiz-adv-x="600" d="M300 503q109 0 181.5 -72t72.5 -185q0 -114 -71.5 -184t-182.5 -70q-110 0 -182 70.5t-72 183.5q0 114 71 185.5t183 71.5zM300 442q-82 0 -134.5 -55t-52.5 -141t52.5 -138.5t134.5 -52.5q84 0 135.5 52.5t51.5 138.5t-52.5 141t-134.5 55zM174 630v56h261v-56h-261z " />
<glyph unicode="&#x14e;" horiz-adv-x="813" d="M407 712q169 -1 262 -107.5t92 -256.5q0 -70 -22.5 -134t-65 -115t-111.5 -81.5t-155 -30.5q-114 0 -196.5 53t-120.5 133.5t-38 175.5q0 154 95.5 258.5t259.5 104.5zM122 348q1 -79 31.5 -144.5t96 -108t157.5 -42.5q135 0 209 86.5t75 208.5q0 126 -74 211.5 t-210 86.5q-136 0 -211.5 -84.5t-73.5 -213.5zM487 894h56q2 -56 -34 -86.5t-99 -30.5q-60 0 -96 31.5t-34 85.5h54q0 -70 76 -70q40 0 58.5 20t18.5 50z" />
<glyph unicode="&#x14f;" horiz-adv-x="600" d="M300 503q109 0 181.5 -72t72.5 -185q0 -114 -71.5 -184t-182.5 -70q-110 0 -182 70.5t-72 183.5q0 114 71 185.5t183 71.5zM300 442q-82 0 -134.5 -55t-52.5 -141t52.5 -138.5t134.5 -52.5q84 0 135.5 52.5t51.5 138.5t-52.5 141t-134.5 55zM384 700h55q2 -60 -33.5 -92 t-97.5 -32q-60 0 -95.5 33t-33.5 91h53q0 -74 76 -74q40 0 58 21.5t18 52.5z" />
<glyph unicode="&#x150;" horiz-adv-x="813" d="M407 712q-164 0 -259.5 -104.5t-95.5 -258.5q0 -95 38 -175.5t120.5 -133.5t196.5 -53q86 0 155 30.5t111.5 81.5t65 115t22.5 134q1 150 -92 256.5t-262 107.5zM122 348q-2 129 73.5 213.5t211.5 84.5q136 -1 210 -86.5t74 -211.5q-1 -122 -75 -208.5t-209 -86.5 q-92 0 -157.5 42.5t-96 108t-31.5 144.5zM592 894v-2l-86 -113h-59v3l73 112h72zM454 894v-2l-86 -113h-59v3l73 112h72z" />
<glyph unicode="&#x151;" horiz-adv-x="600" d="M300 503q-112 0 -183 -71.5t-71 -185.5q0 -113 72 -183.5t182 -70.5q111 0 182.5 70t71.5 184q0 113 -72.5 185t-181.5 72zM300 442q82 0 134.5 -55t52.5 -141t-51.5 -138.5t-135.5 -52.5q-82 0 -134.5 52.5t-52.5 138.5t52.5 141t134.5 55zM473 689v-2l-83 -98h-56v3 l70 97h69zM341 689v-2l-82 -98h-57v3l70 97h69z" />
<glyph unicode="&#x152;" horiz-adv-x="972" d="M919 65v-65h-432q-40 -8 -80 -8q-171 0 -262.5 101t-91.5 259q0 159 91 257.5t263 98.5q45 0 82 -9v1h419v-63h-356v-251h336v-64h-336v-258zM407 649q-138 0 -211.5 -81t-72.5 -218q0 -143 84.5 -219.5t215.5 -76.5q34 2 64 9v576q-40 10 -80 10z" />
<glyph unicode="&#x153;" horiz-adv-x="1009" d="M967 219q-281 0 -424 -1q7 -75 58.5 -119t126.5 -44q47 0 92.5 18t70.5 50l46 -40q-36 -44 -92.5 -68t-117.5 -24q-74 0 -131.5 36.5t-84.5 98.5q-29 -65 -84 -99.5t-129 -34.5q-109 0 -180.5 70.5t-71.5 183.5q0 114 72 185.5t180 71.5q74 0 130.5 -36.5t84.5 -101.5 q26 62 83 100t129 38q116 0 186 -72.5t56 -211.5zM298 441q-80 0 -132.5 -55t-52.5 -140t52 -137.5t133 -52.5t133 52.5t52 137.5t-53 140t-132 55zM543 276h362q-2 80 -50 123.5t-129 43.5q-72 0 -122.5 -44.5t-60.5 -122.5z" />
<glyph unicode="&#x154;" horiz-adv-x="708" d="M432 263l239 -263h-91l-232 258h-181v-258h-70v700h314q111 0 171 -63.5t61 -158.5q1 -88 -52.5 -149t-158.5 -66zM411 634h-244v-310h240q81 0 123.5 42.5t42.5 111.5t-42 112.5t-120 43.5zM444 901v-2l-90 -121h-58v4l72 119h76z" />
<glyph unicode="&#x155;" horiz-adv-x="418" d="M141 494h-63v-494h67v281q0 67 44 111t109 45q47 0 85 -26l31 56q-50 35 -112 35q-49 0 -92 -21.5t-65 -67.5zM331 700v-2l-83 -112h-54v4l66 110h71z" />
<glyph unicode="&#x156;" horiz-adv-x="708" d="M432 263l239 -263h-91l-232 258h-181v-258h-70v700h314q111 0 171 -63.5t61 -158.5q1 -88 -52.5 -149t-158.5 -66zM411 634h-244v-310h240q81 0 123.5 42.5t42.5 111.5t-42 112.5t-120 43.5zM403 -105q0 -10 -5 -25.5t-16 -42t-18 -47.5h-46l26 79q-28 9 -28 37 q0 25 22 36t43.5 0.5t21.5 -37.5z" />
<glyph unicode="&#x157;" horiz-adv-x="418" d="M78 494h63l4 -81q22 46 65 67.5t92 21.5q62 0 112 -35l-31 -56q-38 26 -85 26q-65 -1 -109 -45t-44 -111v-281h-67v494zM155 -105q0 -10 -5 -25.5t-16 -42t-18 -47.5h-46l26 79q-28 9 -28 37q0 25 21.5 36t43.5 0.5t22 -37.5z" />
<glyph unicode="&#x158;" horiz-adv-x="708" d="M432 263l239 -263h-91l-232 258h-181v-258h-70v700h314q111 0 171 -63.5t61 -158.5q1 -88 -52.5 -149t-158.5 -66zM411 634h-244v-310h240q81 0 123.5 42.5t42.5 111.5t-42 112.5t-120 43.5zM180 900v7h68l91 -84l93 84h67v-7l-138 -127h-45z" />
<glyph unicode="&#x159;" horiz-adv-x="418" d="M141 494h-63v-494h67v281q0 67 44 111t109 45q47 0 85 -26l31 56q-50 35 -112 35q-49 0 -92 -21.5t-65 -67.5zM93 697v7h63l85 -83l87 83h62v-7l-129 -125h-41z" />
<glyph unicode="&#x15a;" horiz-adv-x="660" d="M534 556l59 33q-79 122 -261 122q-48 0 -92.5 -10t-85 -31.5t-65 -61t-23.5 -91.5q0 -39 15.5 -69.5t37.5 -49t60.5 -33t69.5 -21.5t79 -15q50 -9 81 -17t65.5 -23t51 -39.5t16.5 -58.5q0 -40 -20 -68t-53 -42t-66 -19.5t-70 -5.5q-71 0 -134.5 29t-96.5 92l-61 -33 q38 -79 117 -117t175 -38q52 0 98 9.5t88.5 31t68 63t25.5 97.5q0 31 -8.5 57t-22 44.5t-36 34t-43.5 25t-53 18.5t-55.5 14t-59.5 11q-38 7 -63 12.5t-53.5 15.5t-44.5 22t-27 30.5t-11 42.5q0 48 33 78.5t74 40t90 9.5q147 -2 201 -89zM443 905v-2l-94 -125h-60v4l74 123 h80z" />
<glyph unicode="&#x15b;" horiz-adv-x="499" d="M400 393l39 44q-73 67 -186 67q-81 1 -140 -35.5t-59 -107.5q0 -29 12 -52t29 -36.5t45 -24t51.5 -15.5t57.5 -10q36 -5 56.5 -9.5t43.5 -14t33 -25.5t10 -39q0 -45 -41 -64t-94 -19q-120 2 -178 80l-42 -46q71 -96 219 -96q53 0 97 13.5t74.5 47.5t31.5 83q0 29 -8 51.5 t-26 37.5t-33.5 25t-45 17t-44.5 9.5t-47 7.5q-40 6 -64.5 12t-47.5 24t-23 45q-1 39 37.5 60t96.5 20q91 0 146 -50zM351 701v-2l-87 -116h-56v4l69 114h74z" />
<glyph unicode="&#x15c;" horiz-adv-x="660" d="M534 556l59 33q-79 122 -261 122q-48 0 -92.5 -10t-85 -31.5t-65 -61t-23.5 -91.5q0 -39 15.5 -69.5t37.5 -49t60.5 -33t69.5 -21.5t79 -15q50 -9 81 -17t65.5 -23t51 -39.5t16.5 -58.5q0 -40 -20 -68t-53 -42t-66 -19.5t-70 -5.5q-71 0 -134.5 29t-96.5 92l-61 -33 q38 -79 117 -117t175 -38q52 0 98 9.5t88.5 31t68 63t25.5 97.5q0 31 -8.5 57t-22 44.5t-36 34t-43.5 25t-53 18.5t-55.5 14t-59.5 11q-38 7 -63 12.5t-53.5 15.5t-44.5 22t-27 30.5t-11 42.5q0 48 33 78.5t74 40t90 9.5q147 -2 201 -89zM320 925h47l143 -133v-7h-71l-96 87 l-96 -87h-71v7z" />
<glyph unicode="&#x15d;" horiz-adv-x="499" d="M400 393l39 44q-73 67 -186 67q-81 1 -140 -35.5t-59 -107.5q0 -29 12 -52t29 -36.5t45 -24t51.5 -15.5t57.5 -10q36 -5 56.5 -9.5t43.5 -14t33 -25.5t10 -39q0 -45 -41 -64t-94 -19q-120 2 -178 80l-42 -46q71 -96 219 -96q53 0 97 13.5t74.5 47.5t31.5 83q0 29 -8 51.5 t-26 37.5t-33.5 25t-45 17t-44.5 9.5t-47 7.5q-40 6 -64.5 12t-47.5 24t-23 45q-1 39 37.5 60t96.5 20q91 0 146 -50zM239 703h43l133 -123v-7h-66l-89 81l-89 -81h-66v7z" />
<glyph unicode="&#x15e;" horiz-adv-x="660" d="M593 589l-59 -33q-54 87 -201 89q-36 0 -68 -6t-62.5 -19t-48.5 -39.5t-18 -63.5q0 -24 11 -42.5t27 -30.5t44.5 -22t53.5 -15.5t63 -12.5q36 -6 59.5 -11t55.5 -14t53 -18.5t43.5 -25t36 -34t22 -44.5t8.5 -57q0 -42 -15 -76t-39 -55.5t-57.5 -37t-67.5 -22.5t-72 -9 l-11 -49q59 2 85 -29.5t16 -74.5q-9 -34 -36.5 -53t-63.5 -21q-37 -3 -71 11t-52 44l35 31q23 -34 67 -36q23 -2 42.5 6.5t24.5 27.5q9 30 -18.5 47.5t-73.5 3.5l-12 10l19 82q-91 3 -163.5 41t-108.5 113l61 33q33 -63 96.5 -92t134.5 -29q37 0 70 5.5t66 19.5t53 42t20 68 q0 34 -16.5 58.5t-51 39.5t-65.5 23t-81 17q-48 8 -79 15t-69.5 21.5t-60.5 33t-37.5 49t-15.5 69.5q-1 52 23.5 91.5t65 61t85 31.5t92.5 10q182 0 261 -122z" />
<glyph unicode="&#x15f;" horiz-adv-x="503" d="M157 -161l33 28q21 -30 64 -32q22 -2 40.5 6t22.5 24q9 26 -17.5 41.5t-70.5 3.5l-11 9l22 71q-138 7 -202 96l42 46q59 -79 178 -81q53 0 94.5 19.5t43.5 64.5q1 42 -36.5 60t-109.5 28q-34 5 -57.5 10t-51.5 15.5t-45 24t-29 36.5t-12 52q0 71 59 107t140 35 q114 0 186 -66l-39 -44q-55 50 -146 50q-58 1 -96.5 -20t-37.5 -60q1 -37 37 -55.5t86.5 -25t101 -16.5t84.5 -42t32 -90q-1 -66 -51 -101.5t-125 -41.5l-11 -43q53 3 76.5 -22.5t17.5 -60.5q-6 -37 -37 -57t-72 -20q-74 2 -103 51z" />
<glyph unicode="&#x160;" horiz-adv-x="660" d="M534 556l59 33q-79 122 -261 122q-48 0 -92.5 -10t-85 -31.5t-65 -61t-23.5 -91.5q0 -39 15.5 -69.5t37.5 -49t60.5 -33t69.5 -21.5t79 -15q50 -9 81 -17t65.5 -23t51 -39.5t16.5 -58.5q0 -40 -20 -68t-53 -42t-66 -19.5t-70 -5.5q-71 0 -134.5 29t-96.5 92l-61 -33 q38 -79 117 -117t175 -38q52 0 98 9.5t88.5 31t68 63t25.5 97.5q0 31 -8.5 57t-22 44.5t-36 34t-43.5 25t-53 18.5t-55.5 14t-59.5 11q-38 7 -63 12.5t-53.5 15.5t-44.5 22t-27 30.5t-11 42.5q0 48 33 78.5t74 40t90 9.5q147 -2 201 -89zM174 910v7h71l96 -88l98 88h70v-7 l-145 -134h-47z" />
<glyph unicode="&#x161;" horiz-adv-x="499" d="M400 393l39 44q-73 67 -186 67q-81 1 -140 -35.5t-59 -107.5q0 -29 12 -52t29 -36.5t45 -24t51.5 -15.5t57.5 -10q36 -5 56.5 -9.5t43.5 -14t33 -25.5t10 -39q0 -45 -41 -64t-94 -19q-120 2 -178 80l-42 -46q71 -96 219 -96q53 0 97 13.5t74.5 47.5t31.5 83q0 29 -8 51.5 t-26 37.5t-33.5 25t-45 17t-44.5 9.5t-47 7.5q-40 6 -64.5 12t-47.5 24t-23 45q-1 39 37.5 60t96.5 20q91 0 146 -50zM104 697v6h64l87 -79l89 79h63v-6l-131 -121h-43z" />
<glyph unicode="&#x162;" horiz-adv-x="598" d="M265 1v635h-248v63h564v-63h-247v-636h-21l-9 -41q59 1 82.5 -30t13.5 -73q-9 -37 -40 -56.5t-69 -19.5q-79 0 -112 56l35 31q13 -17 34 -27t43 -9q19 0 35.5 10t20.5 25q9 30 -17.5 47.5t-72.5 3.5l-12 10z" />
<glyph unicode="&#x163;" horiz-adv-x="392" d="M136 633l67 7v-147h160v-57h-160v-246q0 -28 1 -44.5t5.5 -36.5t13 -30t24.5 -17.5t40 -7.5q31 0 72 19l21 -56q-51 -24 -95 -24q-15 0 -21 1l-11 -45q59 3 85.5 -25.5t15.5 -68.5q-9 -33 -39 -51t-69 -19q-35 -1 -66.5 12.5t-47.5 39.5l34 29q27 -34 73 -34q52 0 62 33 q9 26 -18.5 40.5t-74.5 2.5l-11 9l22 86q-49 17 -66 61.5t-17 125.5v246h-101v57h101v140z" />
<glyph unicode="&#x164;" horiz-adv-x="596" d="M263 634v-634h70v634h247v66h-564v-66h247zM133 901v6h69l93 -83l95 83h68v-6l-141 -128h-45z" />
<glyph unicode="&#x165;" horiz-adv-x="423" d="M132 633l67 7v-147h102v-57h-102v-279q0 -51 18.5 -77t65.5 -26q31 0 72 19l21 -56q-51 -24 -95 -24q-77 -1 -113 41.5t-36 122.5v279h-97v57h97v140zM348 478l41 163h66l-57 -163h-50z" />
<glyph unicode="&#x166;" horiz-adv-x="608" d="M144 304v56h124v275h-246v64h564v-64h-245v-275h126v-56h-126v-304h-73v304h-124z" />
<glyph unicode="&#x167;" horiz-adv-x="392" d="M58 256v50h78v133h-101v54h101v140l67 7v-147h160v-54h-160v-133h119v-50h-119v-99q0 -51 18.5 -77t65.5 -26q31 0 72 19l21 -56q-51 -24 -95 -24q-77 -1 -113 41.5t-36 122.5v99h-78z" />
<glyph unicode="&#x168;" horiz-adv-x="734" d="M575 700h70v-427q0 -136 -78 -208t-198 -72q-121 0 -200.5 72.5t-79.5 207.5v427h70v-427q0 -98 59.5 -156.5t150.5 -58.5q86 0 146 55.5t60 159.5v427zM282 787l-45 17q8 37 35 55t63 12q11 -2 43 -17.5t52.5 -14.5t30.5 31l45 -18q-8 -40 -35 -56.5t-61 -9.5 q-11 3 -28.5 11t-30.5 13t-27 7.5t-25 -5t-17 -25.5z" />
<glyph unicode="&#x169;" horiz-adv-x="606" d="M71 494h67v-277q0 -77 43.5 -119.5t118.5 -41.5q71 0 116.5 48.5t45.5 120.5v269h66v-494h-62l-2 83q-58 -89 -175 -91q-98 0 -158 60t-60 164v278zM217 635l-45 16q8 36 35 53t63 11q11 -2 43 -17t52.5 -13.5t30.5 29.5l45 -17q-8 -38 -35.5 -54t-60.5 -9 q-10 3 -28 10.5t-31 12.5t-27 7t-25 -5t-17 -24z" />
<glyph unicode="&#x16a;" horiz-adv-x="734" d="M575 700h70v-427q0 -136 -78 -208t-198 -72q-121 0 -200.5 72.5t-79.5 207.5v427h70v-427q0 -98 59.5 -156.5t150.5 -58.5q86 0 146 55.5t60 159.5v427zM245 776v55h261v-55h-261z" />
<glyph unicode="&#x16b;" horiz-adv-x="606" d="M71 494h67v-277q0 -77 43.5 -119.5t118.5 -41.5q71 0 116.5 48.5t45.5 120.5v269h66v-494h-62l-2 83q-58 -89 -175 -91q-98 0 -158 60t-60 164v278zM180 645v53h251v-53h-251z" />
<glyph unicode="&#x16c;" horiz-adv-x="734" d="M575 700h70v-427q0 -136 -78 -208t-198 -72q-121 0 -200.5 72.5t-79.5 207.5v427h70v-427q0 -98 59.5 -156.5t150.5 -58.5q86 0 146 55.5t60 159.5v427zM451 893h56q2 -62 -34 -95.5t-99 -33.5q-61 0 -97 34.5t-34 94.5h54q0 -77 77 -77q40 0 58.5 22t18.5 55z" />
<glyph unicode="&#x16d;" horiz-adv-x="606" d="M71 494h67v-277q0 -77 43.5 -119.5t118.5 -41.5q71 0 116.5 48.5t45.5 120.5v269h66v-494h-62l-2 83q-58 -89 -175 -91q-98 0 -158 60t-60 164v278zM384 700h55q2 -59 -33.5 -91.5t-96.5 -32.5q-59 0 -94.5 33t-33.5 91h53q0 -32 17 -53t58 -21q39 0 57 21t18 53z" />
<glyph unicode="&#x16e;" horiz-adv-x="734" d="M575 700h70v-427q0 -136 -78 -208t-198 -72q-121 0 -200.5 72.5t-79.5 207.5v427h70v-427q0 -98 59.5 -156.5t150.5 -58.5q86 0 146 55.5t60 159.5v427zM266 829q0 43 31.5 67t74.5 24t74.5 -24t31.5 -67q0 -44 -30.5 -69t-76.5 -25t-75.5 25t-29.5 69zM371 879 q-35 0 -49.5 -25t0 -50t49.5 -25q36 0 51 25t0 50t-51 25z" />
<glyph unicode="&#x16f;" horiz-adv-x="606" d="M71 494h67v-277q0 -77 43.5 -119.5t118.5 -41.5q71 0 116.5 48.5t45.5 120.5v269h66v-494h-62l-2 83q-58 -89 -175 -91q-98 0 -158 60t-60 164v278zM204 636q0 42 30 66t72 24t72.5 -24t30.5 -66q0 -43 -30 -67.5t-74 -24.5q-45 0 -73 24.5t-28 67.5zM305 685 q-25 0 -39.5 -15.5t-14.5 -33.5t14.5 -33.5t39.5 -15.5q35 0 49.5 24.5t0 49t-49.5 24.5z" />
<glyph unicode="&#x170;" horiz-adv-x="734" d="M645 700h-70v-427q0 -104 -60 -159.5t-146 -55.5q-91 0 -150.5 58.5t-59.5 156.5v427h-70v-427q0 -135 79.5 -207.5t200.5 -72.5q120 0 198 72t78 208v427zM542 884v-2l-87 -114h-59v2l74 114h72zM403 884v-2l-86 -114h-60v2l74 114h72z" />
<glyph unicode="&#x171;" horiz-adv-x="606" d="M138 494h-67v-278q0 -104 60 -164t158 -60q117 2 175 91l2 -83h62v494h-66v-269q0 -72 -45.5 -120.5t-116.5 -48.5q-75 -1 -118.5 41.5t-43.5 119.5v277zM452 701v-2l-83 -108h-56v2l70 108h69zM319 701v-2l-82 -108h-57v2l70 108h69z" />
<glyph unicode="&#x172;" horiz-adv-x="733" d="M572 700h73v-373q0 -136 -41.5 -212.5t-133.5 -108.5q-49 -28 -38 -70.5t65 -42.5q54 2 87 48l42 -28q-17 -33 -53.5 -54t-75.5 -23q-40 -1 -70 14t-42 38.5t-14.5 51t13.5 50.5q-121 -6 -208 68.5t-87 214.5v427h73v-427q0 -112 70 -169.5t163 -45.5q77 9 127 65t50 150 v427z" />
<glyph unicode="&#x173;" horiz-adv-x="604" d="M560 -119l26 -31q-39 -47 -106 -47q-91 0 -112 62q-13 39 12 77.5t85 45.5l-2 95q-60 -89 -176 -91q-218 0 -218 267v235h67v-234q0 -103 35 -153.5t127 -50.5q70 0 115.5 48.5t45.5 120.5v269h67v-539q-26 1 -51 -3.5t-44 -21.5t-13 -44q10 -35 64 -35q44 0 78 30z" />
<glyph unicode="&#x174;" horiz-adv-x="1080" d="M801 -2l248 702h-78l-205 -606l-204 606h-44l-204 -606l-204 606h-79l248 -702h72l105 302l84 264l85 -265l105 -301h71zM514 918h46l140 -130v-7h-69l-95 85l-94 -85h-70v7z" />
<glyph unicode="&#x175;" horiz-adv-x="833" d="M443 494h-53l-140 -421l-140 421h-74l175 -495h76l73 198l57 188l56 -187l73 -199h76l174 495h-74l-139 -421zM396 704h46l137 -129v-6h-68l-92 84l-93 -84h-68v6z" />
<glyph unicode="&#x176;" horiz-adv-x="663" d="M331 350l-223 350h-81v-2l269 -416v-282h70v282l273 416v2h-82zM312 914h45l137 -128v-6h-68l-92 83l-91 -83h-68v6z" />
<glyph unicode="&#x177;" horiz-adv-x="544" d="M515 494h-74l-115 -273l-56 -142l-55 142l-105 273h-75l198 -488l-104 -242h73zM250 703h44l133 -124v-7h-66l-90 82l-90 -82h-66v7z" />
<glyph unicode="&#x178;" horiz-adv-x="663" d="M331 350l-223 350h-81v-2l269 -416v-282h70v282l273 416v2h-82zM185 808q0 26 21 36.5t42 0t21 -36.5t-21 -37t-42 0t-21 37zM397 808q0 26 21 36.5t42 0t21 -36.5t-21 -37t-42 0t-21 37z" />
<glyph unicode="&#x179;" horiz-adv-x="596" d="M61 700v-65h389l-428 -599v-36h535v68h-435l435 602v30h-496zM394 906v-2l-94 -126h-61v4l75 124h80z" />
<glyph unicode="&#x17a;" horiz-adv-x="466" d="M425 494h-377v-61h278l-295 -408v-25h395v64h-293l292 401v29zM335 700v-2l-88 -118h-57v4l70 116h75z" />
<glyph unicode="&#x17b;" horiz-adv-x="596" d="M61 700v-65h389l-428 -599v-36h535v68h-435l435 602v30h-496zM255 819q0 30 23.5 42t47.5 0t24 -42t-24 -42t-47.5 0t-23.5 42z" />
<glyph unicode="&#x17c;" horiz-adv-x="466" d="M425 494h-377v-61h278l-295 -408v-25h395v64h-293l292 401v29zM200 646q0 30 24 42t47.5 0t23.5 -42t-23.5 -42t-47.5 0t-24 42z" />
<glyph unicode="&#x17d;" horiz-adv-x="596" d="M61 700v-65h389l-428 -599v-36h535v68h-435l435 602v30h-496zM141 910v7h71l96 -88l98 88h70v-7l-145 -134h-47z" />
<glyph unicode="&#x17e;" horiz-adv-x="466" d="M425 494h-377v-61h278l-295 -408v-25h395v64h-293l292 401v29zM94 694v6h64l86 -79l89 79h63v-6l-131 -121h-42z" />
<glyph unicode="&#x17f;" horiz-adv-x="297" d="M199 0h-67v430h-98v59h98v41q0 82 40 128.5t118 46.5q57 0 106 -35l-29 -50q-42 25 -76 25q-92 0 -92 -115v-530z" />
<glyph unicode="&#x192;" horiz-adv-x="454" d="M173 -1v432h-122v58h122v41q0 82 40 128.5t118 46.5q57 0 106 -35l-29 -50q-42 25 -76 25q-92 0 -92 -115v-41h158v-58h-158v-432q0 -176 -148 -176q-50 0 -99 35l28 48q33 -24 70 -24q43 0 62.5 28.5t19.5 88.5z" />
<glyph unicode="&#x1fa;" horiz-adv-x="750" d="M376 866q-58 0 -90 -34t-20 -76t66 -62l-311 -694h77l73 165h407l74 -165h77l-311 693q43 14 61 43t11 57.5t-38 50.5t-76 22zM550 230h-351l91 207l85 204l83 -201zM375 820q38 0 54 -22t0.5 -44t-54.5 -22q-37 0 -52 22t0 44t52 22zM500 980v-1l-98 -86h-64v3l78 84h84 z" />
<glyph unicode="&#x1fb;" horiz-adv-x="634" d="M493 396q-27 50 -80.5 77.5t-113.5 27.5q-108 0 -180.5 -70t-72.5 -184q0 -115 72 -186t180 -71q58 0 111.5 27.5t84.5 80.5v-98h62v494h-63v-98zM301 440q52 0 93.5 -21.5t62.5 -55.5t31 -75.5t0 -82.5t-31 -75t-62.5 -55.5t-93.5 -21.5q-80 0 -134 54t-54 140 q0 85 54 139t134 54zM223 621q0 -40 27.5 -62.5t70.5 -22.5t72 22.5t29 62.5t-30 62t-70 22t-69.5 -22.5t-29.5 -61.5zM321 667q25 0 39.5 -14t14.5 -31.5t-14.5 -31.5t-39.5 -14q-33 0 -46.5 23t0 45.5t46.5 22.5zM438 829v-1l-88 -94h-57v3l70 92h75z" />
<glyph unicode="&#x1fc;" horiz-adv-x="914" d="M860 0v67h-347v253h320v65h-320v250h336v65h-433l-430 -700h84l132 221h243v-221h415zM445 287h-202l201 341h3l-2 -174v-167zM604 906v-2l-94 -126h-61v4l75 124h80z" />
<glyph unicode="&#x1fd;" horiz-adv-x="1022" d="M980 219q9 69 -8 124.5t-52 89.5t-81.5 52t-99.5 18q-128 0 -193 -103v94h-54l-1 -98q-28 51 -80.5 78t-112.5 27q-107 0 -179.5 -70t-72.5 -184q0 -115 72 -186t179 -71q58 0 110 27t83 80v-97h53l1 91q62 -100 193 -100q61 0 119.5 24t93.5 68l-46 40q-25 -32 -72 -50 t-94 -18q-76 0 -129 44.5t-60 119.5h431zM301 439q61 0 106.5 -28.5t65.5 -71.5t20 -92.5t-20 -92.5t-65.5 -71.5t-106.5 -28.5q-80 0 -134 53.5t-54 139.5q0 85 54 138.5t134 53.5zM549 276q9 78 62 122.5t125 44.5q82 0 131 -43.5t51 -123.5h-369zM628 702v-2l-87 -116 h-56v4l69 114h74z" />
<glyph unicode="&#x1fe;" horiz-adv-x="813" d="M407 712q-114 0 -196.5 -52.5t-120.5 -133t-38 -177.5q0 -94 38.5 -175.5t112.5 -129.5l-70 -121h72l53 91q67 -27 149 -27q86 0 155 30.5t111.5 81.5t65 115t22.5 134q0 90 -35.5 169t-103.5 129l67 116h-72l-49 -85q-72 35 -161 35zM407 55q-63 0 -114 20l294 510 q103 -84 103 -237q-1 -120 -74.5 -206.5t-208.5 -86.5zM407 644q67 0 126 -26l-293 -512q-56 39 -86 104t-30 138q-1 124 73 210t210 86zM533 915v-2l-94 -126h-61v4l75 124h80z" />
<glyph unicode="&#x1ff;" horiz-adv-x="597" d="M298 503q-108 0 -180 -71.5t-72 -185.5q0 -137 99 -207l-57 -96h66l40 68q47 -19 104 -19q110 0 181.5 70.5t71.5 183.5q0 132 -95 204l55 92h-67l-37 -62q-51 23 -109 23zM298 441q37 0 76 -17l-194 -326q-67 51 -67 148q0 85 52.5 140t132.5 55zM298 56q-38 0 -69 12 l193 324q62 -55 62 -146q0 -85 -52.5 -137.5t-133.5 -52.5zM405 700v-2l-85 -113h-55v3l68 112h72z" />
<glyph unicode="&#x218;" horiz-adv-x="660" d="M593 589l-59 -33q-54 87 -201 89q-36 0 -68 -6t-62.5 -19t-48.5 -39.5t-18 -63.5q0 -24 11 -42.5t27 -30.5t44.5 -22t53.5 -15.5t63 -12.5q36 -6 59.5 -11t55.5 -14t53 -18.5t43.5 -25t36 -34t22 -44.5t8.5 -57q0 -56 -25.5 -97.5t-68 -63t-88.5 -31t-98 -9.5 q-96 0 -175 38t-117 117l61 33q33 -63 96.5 -92t134.5 -29q37 0 70 5.5t66 19.5t53 42t20 68q0 34 -16.5 58.5t-51 39.5t-65.5 23t-81 17q-48 8 -79 15t-69.5 21.5t-60.5 33t-37.5 49t-15.5 69.5q-1 52 23.5 91.5t65 61t85 31.5t92.5 10q182 0 261 -122zM381 -141 q0 -10 -5 -25.5t-16 -42t-18 -47.5h-46l26 79q-28 9 -28 37q0 25 22 36t43.5 0.5t21.5 -37.5z" />
<glyph unicode="&#x219;" horiz-adv-x="499" d="M439 437l-39 -44q-55 50 -146 50q-58 1 -96.5 -20t-37.5 -60q0 -27 23 -45t47.5 -24t64.5 -12q32 -5 47 -7.5t44.5 -9.5t45 -17t33.5 -25t26 -37.5t8 -51.5q-1 -49 -31.5 -83t-74.5 -47.5t-97 -13.5q-148 0 -219 96l42 46q58 -78 178 -80q53 0 94 19t41 64q0 23 -10 39 t-33 25.5t-43.5 14t-56.5 9.5q-34 5 -57.5 10t-51.5 15.5t-45 24t-29 36.5t-12 52q0 71 59 107.5t140 35.5q113 0 186 -67zM303 -128q0 -10 -5 -25.5t-16 -42t-18 -47.5h-46l26 79q-28 9 -28 37q0 25 22 36t43.5 0.5t21.5 -37.5z" />
<glyph unicode="&#x21a;" horiz-adv-x="596" d="M263 0v634h-247v66h564v-66h-247v-634h-70zM338 -130q0 -10 -5 -25.5t-16 -42t-18 -47.5h-46l26 79q-28 9 -28 37q0 25 21.5 36t43.5 0.5t22 -37.5z" />
<glyph unicode="&#x21b;" horiz-adv-x="392" d="M136 633l67 7v-147h160v-57h-160v-279q0 -51 18.5 -77t65.5 -26q31 0 72 19l21 -56q-51 -24 -95 -24q-77 -1 -113 41.5t-36 122.5v279h-101v57h101v140zM292 -124q0 -10 -5 -25.5t-16 -42t-18 -47.5h-46l26 79q-28 9 -28 37q0 25 21.5 36t43.5 0.5t22 -37.5z" />
<glyph unicode="&#x237;" horiz-adv-x="223" d="M78 495h67v-564q0 -86 -31 -131t-109 -45q-49 0 -94 26l21 55q34 -18 71 -18q46 0 60.5 28.5t14.5 84.5v564z" />
<glyph unicode="&#x2c6;" horiz-adv-x="421" d="M176 704h47l143 -133v-7h-71l-96 87l-96 -87h-71v7z" />
<glyph unicode="&#x2c7;" horiz-adv-x="404" d="M31 694v7h71l96 -88l98 88h70v-7l-145 -134h-47z" />
<glyph unicode="&#x2d8;" horiz-adv-x="333" d="M238 700h56q2 -62 -34 -95.5t-99 -33.5q-61 0 -97 34.5t-34 94.5h54q0 -77 77 -77q40 0 58.5 22t18.5 55z" />
<glyph unicode="&#x2d9;" horiz-adv-x="206" d="M45 660q0 30 23.5 42t47.5 0t24 -42t-23.5 -42t-47.5 0t-24 42z" />
<glyph unicode="&#x2da;" horiz-adv-x="397" d="M59 615q0 48 33 75t79 27t79.5 -27t33.5 -75q0 -49 -32.5 -77t-81.5 -28t-80 28t-31 77zM170 671q-28 0 -44 -17.5t-15.5 -38.5t16 -38.5t43.5 -17.5q39 0 54.5 28t-0.5 56t-54 28z" />
<glyph unicode="&#x2db;" horiz-adv-x="407" d="M263 -115l39 -25q-16 -31 -47.5 -48.5t-67.5 -19.5q-50 -2 -82.5 21.5t-37.5 60.5q-7 48 33 86t124 26l15 -37q-62 11 -96 -14.5t-20 -60.5q15 -35 64 -32q48 2 76 43z" />
<glyph unicode="&#x2dc;" horiz-adv-x="336" d="M75 632l-45 18q8 39 35 57.5t63 11.5q11 -2 43 -18t52.5 -14.5t30.5 31.5l45 -18q-8 -41 -35 -58.5t-61 -10.5q-10 3 -28 11.5t-31 13.5t-27 7.5t-25 -5t-17 -26.5z" />
<glyph unicode="&#x2dd;" horiz-adv-x="352" d="M321 701v-2l-90 -118h-61v3l76 117h75zM177 701v-2l-89 -118h-62v3l76 117h75z" />
<glyph unicode="&#x394;" horiz-adv-x="693" d="M382 700l314 -700h-708l314 700h80zM342 631l-252 -568h503z" />
<glyph unicode="&#x3a9;" horiz-adv-x="801" d="M385 644q-135 0 -209.5 -85t-73.5 -207q0 -102 54.5 -183.5t154.5 -105.5v-63h-250v63l133 -2q-80 43 -122 120.5t-42 171.5q0 151 95 255t260 104q111 0 193.5 -50.5t122.5 -131t40 -177.5q0 -94 -42 -171.5t-122 -120.5l133 2v-63h-250v63q99 24 153.5 105.5 t55.5 183.5q0 122 -74.5 207t-209.5 85z" />
<glyph unicode="&#x3bc;" horiz-adv-x="603" d="M543 0h-59l-6 76q-23 -43 -70 -65t-98 -20q-52 0 -95.5 21t-61.5 64v-300h-67v717h68v-280q0 -73 48 -116.5t112 -44.5q66 -1 113.5 44.5t47.5 130.5v266h68v-493z" />
<glyph unicode="&#x3c0;" horiz-adv-x="679" d="M211 0h-66v436h-118v58h618v-58h-120v-292q0 -55 21.5 -78t78.5 -14l3 -54q-87 -17 -128.5 22.5t-40.5 122.5v293h-248v-436z" />
<glyph unicode="&#x1e80;" horiz-adv-x="1080" d="M1049 700l-248 -702h-71l-105 301l-85 265l-84 -264l-105 -302h-72l-248 702h79l204 -606l204 606h44l204 -606l205 606h78zM423 898v2h78l70 -118v-4h-60z" />
<glyph unicode="&#x1e81;" horiz-adv-x="833" d="M390 494h53l140 -421l139 421h74l-174 -495h-76l-73 199l-56 187l-57 -188l-73 -198h-76l-175 495h74l140 -421zM308 697v2h75l68 -108v-3h-58z" />
<glyph unicode="&#x1e82;" horiz-adv-x="1080" d="M801 -2l248 702h-78l-205 -606l-204 606h-44l-204 -606l-204 606h-79l248 -702h72l105 302l84 264l85 -265l105 -301h71zM663 897v-2l-93 -117h-60v3l74 116h79z" />
<glyph unicode="&#x1e83;" horiz-adv-x="833" d="M443 494h-53l-140 -421l-140 421h-74l175 -495h76l73 198l57 188l56 -187l73 -199h76l174 495h-74l-139 -421zM516 700v-1l-83 -111h-53v3l65 109h71z" />
<glyph unicode="&#x1e84;" horiz-adv-x="1080" d="M801 -2l248 702h-78l-205 -606l-204 606h-44l-204 -606l-204 606h-79l248 -702h72l105 302l84 264l85 -265l105 -301h71zM385 827q0 27 22 38.5t44 0t22 -38.5t-22 -38.5t-44 0t-22 38.5zM608 827q0 27 22 38.5t44 0t22 -38.5t-22 -38.5t-44 0t-22 38.5z" />
<glyph unicode="&#x1e85;" horiz-adv-x="833" d="M443 494h-53l-140 -421l-140 421h-74l175 -495h76l73 198l57 188l56 -187l73 -199h76l174 495h-74l-139 -421zM258 653q0 27 22 38.5t44 0t22 -38.5t-22 -38.5t-44 0t-22 38.5zM481 653q0 27 22 38.5t44 0t22 -38.5t-22 -38.5t-44 0t-22 38.5z" />
<glyph unicode="&#x1ef2;" horiz-adv-x="663" d="M108 700l223 -350l226 350h82v-2l-273 -416v-282h-70v282l-269 416v2h81zM224 895v2h76l68 -114v-4h-58z" />
<glyph unicode="&#x1ef3;" horiz-adv-x="544" d="M441 494h74l-313 -730h-73l104 242l-198 488h75l105 -273l55 -142l56 142zM187 698v2h73l67 -112v-3h-57z" />
<glyph unicode="&#x2013;" horiz-adv-x="596" d="M72 256v61h452v-61h-452z" />
<glyph unicode="&#x2014;" horiz-adv-x="701" d="M72 255v61h557v-61h-557z" />
<glyph unicode="&#x2018;" horiz-adv-x="223" d="M175 701l-45 -179h-75l63 179h57z" />
<glyph unicode="&#x2019;" horiz-adv-x="222" d="M60 518l46 183h74l-63 -183h-57z" />
<glyph unicode="&#x201a;" horiz-adv-x="238" d="M41 -111l46 183h74l-63 -183h-57z" />
<glyph unicode="&#x201c;" horiz-adv-x="364" d="M315 698l-48 -182h-74l65 182h57zM178 698l-47 -182h-75l65 182h57z" />
<glyph unicode="&#x201d;" horiz-adv-x="356" d="M58 524l46 177h74l-63 -177h-57zM195 524l46 177h74l-63 -177h-57z" />
<glyph unicode="&#x201e;" horiz-adv-x="367" d="M41 -111l46 183h66l-57 -183h-55zM175 -111l46 183h69l-62 -183h-53z" />
<glyph unicode="&#x2020;" horiz-adv-x="560" d="M315 700v-195h211v-63h-211v-570h-70v570h-211v63h211v195h70z" />
<glyph unicode="&#x2021;" horiz-adv-x="608" d="M339 700v-194h211v-63h-211v-264h211v-62h-211v-247h-70v247h-211v62h211v264h-211v63h211v194h70z" />
<glyph unicode="&#x2022;" horiz-adv-x="390" d="M196 179q-46 0 -76 28.5t-30 74.5q0 47 30 75.5t76 28.5q45 0 74.5 -28.5t29.5 -75.5q0 -46 -29.5 -74.5t-74.5 -28.5z" />
<glyph unicode="&#x2026;" horiz-adv-x="603" d="M68 38q0 30 24 42t47.5 0t23.5 -42t-23.5 -42t-47.5 0t-24 42zM255 38q0 30 23.5 42t47.5 0t24 -42t-24 -42t-47.5 0t-23.5 42zM440 38q0 30 24 42t47.5 0t23.5 -42t-23.5 -42t-47.5 0t-24 42z" />
<glyph unicode="&#x2030;" horiz-adv-x="1121" d="M566 700h72l-452 -700h-73q70 110 225 347.5t228 352.5zM195 699q73 0 114.5 -45.5t41.5 -106.5q0 -62 -41 -106t-115 -44t-114.5 44t-40.5 106q0 61 41 106.5t114 45.5zM564 295q74 0 115 -45t41 -106q0 -62 -41 -106t-115 -44t-114.5 44t-40.5 106q0 61 40.5 106 t114.5 45zM564 236q-43 0 -67 -27t-24 -63q0 -37 24.5 -64.5t67.5 -27.5t67 26.5t24 63.5t-24.5 64.5t-67.5 27.5zM195 636q-43 0 -67 -26t-24 -61q0 -37 24 -63t68 -26q42 0 65.5 26t23.5 61q0 36 -24 62.5t-66 26.5zM931 295q74 0 115 -45t41 -106q0 -62 -41 -106 t-115 -44t-114.5 44t-40.5 106q0 61 40.5 106t114.5 45zM931 236q-43 0 -67 -27t-24 -63q0 -37 24.5 -64.5t67.5 -27.5t67 26.5t24 63.5t-24.5 64.5t-67.5 27.5z" />
<glyph unicode="&#x2039;" horiz-adv-x="307" d="M47 298l139 220h71v-4l-136 -216q16 -25 127 -202l9 -18h-71z" />
<glyph unicode="&#x203a;" horiz-adv-x="308" d="M122 515l139 -219l-139 -221h-71l136 221l-136 216v3h71z" />
<glyph unicode="&#x2044;" horiz-adv-x="149" d="M229 704h64l-376 -707h-63z" />
<glyph unicode="&#x2070;" horiz-adv-x="385" d="M100 658v-53q0 -49 28.5 -77t63 -28.5t63 27.5t28.5 78v53q0 50 -28.5 79t-63 29t-63 -28.5t-28.5 -79.5zM43 605v53q0 60 31 101.5t74.5 51t87.5 0t75 -51t31 -101.5v-53q0 -51 -22 -88t-55.5 -54t-72 -17t-72 17t-55.5 54t-22 88z" />
<glyph unicode="&#x2074;" horiz-adv-x="360" d="M213 812h64v-231h48v-50h-48v-77h-56v77h-192l-3 45zM221 581v161l-130 -161h130z" />
<glyph unicode="&#x2075;" horiz-adv-x="360" d="M303 812v-51h-199v-81h75q69 0 107 -31t38 -86q0 -54 -38 -85t-105 -31q-60 0 -100 24.5t-41 81.5h55q1 -54 85 -54q86 0 86 64q0 27 -19.5 46.5t-67.5 19.5h-130v183h254z" />
<glyph unicode="&#x2076;" horiz-adv-x="375" d="M193 494q35 0 60.5 15t25.5 48t-25.5 49t-59.5 16q-35 0 -61 -16.5t-27 -47.5q0 -33 25.5 -48.5t61.5 -15.5zM194 671q60 0 101.5 -26.5t41.5 -87.5q0 -57 -42.5 -84.5t-101.5 -27.5q-60 0 -102 28t-42 85v141q0 57 41 86.5t98 29.5q59 0 98.5 -24t42.5 -72h-56 q-5 44 -84 44q-83 0 -83 -64v-60q31 32 88 32z" />
<glyph unicode="&#x2077;" horiz-adv-x="315" d="M122 453h-66l165 307h-191v52h264l4 -26z" />
<glyph unicode="&#x2078;" horiz-adv-x="382" d="M101 547q0 -28 28.5 -42.5t61.5 -14.5t61.5 14.5t28.5 42.5q0 31 -27 47t-63 16t-63 -16t-27 -47zM41 547q0 32 20.5 55.5t52.5 31.5q-66 22 -66 81q0 51 43 76t100 25t100.5 -24.5t43.5 -76.5q0 -58 -66 -81q31 -8 51.5 -32t20.5 -55q0 -39 -23.5 -64t-55.5 -34t-71 -9 q-61 0 -105.5 25t-44.5 82zM107 714q0 -27 24.5 -41t59.5 -14t59.5 14t24.5 41q1 28 -25.5 41t-58.5 13t-58 -13t-26 -41z" />
<glyph unicode="&#x2079;" horiz-adv-x="375" d="M182 766q-35 0 -60.5 -15.5t-25.5 -48.5t25.5 -49t60.5 -16q34 0 60.5 16.5t26.5 47.5q0 34 -25.5 49.5t-61.5 15.5zM182 589q-61 0 -102 26t-41 87q0 57 42 85t101 28t101.5 -28.5t42.5 -85.5v-141q0 -57 -40.5 -86t-98.5 -29q-59 0 -98.5 24t-42.5 71h56q5 -44 85 -44 q83 0 83 64v61q-31 -32 -88 -32z" />
<glyph unicode="&#x2080;" horiz-adv-x="385" d="M100 119v-53q0 -49 28.5 -76.5t63 -28t63 27t28.5 77.5v53q0 51 -28.5 79.5t-63 28.5t-63 -28.5t-28.5 -79.5zM43 67v52q0 60 31 101.5t74.5 51t87.5 0t75 -51t31 -101.5v-52q0 -50 -22 -87t-55.5 -54t-72 -17t-72 17t-55.5 54t-22 87z" />
<glyph unicode="&#x2081;" horiz-adv-x="250" d="M38 -86v50h62v243l-54 -14v52l112 26v-307h65v-50h-185z" />
<glyph unicode="&#x2082;" horiz-adv-x="361" d="M101 170h-56q0 58 39 83t98 25t98.5 -25.5t39.5 -84.5q0 -33 -11.5 -55.5t-34 -34t-42 -16t-48.5 -7.5q-19 -2 -22.5 -2.5t-19 -2.5t-19.5 -5.5t-12.5 -9.5t-11 -15.5t-2.5 -22.5v-27h219v-56h-273v84q0 101 136 108q84 4 84 62q0 62 -82 62q-80 0 -80 -60z" />
<glyph unicode="&#x2083;" horiz-adv-x="362" d="M181 75h-55v49h51q80 0 80 51q0 20 -20.5 36.5t-59.5 16.5q-31 0 -56 -13t-26 -45h-51q0 54 39 80.5t95 26.5t96 -26.5t40 -75.5q0 -28 -15 -48.5t-41 -27.5q30 -8 46.5 -31t16.5 -48q0 -60 -41.5 -86t-102.5 -26q-58 0 -98 26t-41 83h59q2 -56 82 -56q84 0 84 59 q0 20 -20.5 37.5t-61.5 17.5z" />
<glyph unicode="&#x2084;" horiz-adv-x="356" d="M199 272h78v-231h42v-53h-42v-74h-56v74h-192l-3 47zM221 41v176l-130 -176h130z" />
<glyph unicode="&#x2085;" horiz-adv-x="360" d="M304 272v-51h-199v-81h75q69 0 107 -31t38 -86q0 -53 -38 -84.5t-105 -31.5q-60 0 -100 24.5t-41 81.5h55q1 -54 85 -54q86 0 86 64q0 27 -19.5 46.5t-67.5 19.5h-130v183h254z" />
<glyph unicode="&#x2086;" horiz-adv-x="374" d="M192 -43q35 0 60.5 15t25.5 48t-25.5 49t-59.5 16q-35 0 -61 -16.5t-27 -47.5q0 -33 25.5 -48.5t61.5 -15.5zM193 134q60 0 101.5 -26.5t41.5 -87.5q0 -57 -42.5 -85t-101.5 -28t-101.5 28.5t-42.5 85.5v141q0 57 40.5 86t98.5 29q59 0 98.5 -24t42.5 -71h-56 q-5 44 -84 44q-83 0 -83 -64v-60q31 32 88 32z" />
<glyph unicode="&#x2087;" horiz-adv-x="315" d="M122 -86h-66l165 306h-191v52h264l4 -25z" />
<glyph unicode="&#x2088;" horiz-adv-x="382" d="M101 15q0 -28 28.5 -42.5t61.5 -14.5t61.5 14.5t28.5 42.5q0 30 -27.5 46t-62.5 16q-36 0 -63 -15.5t-27 -46.5zM41 14q0 32 20.5 56t52.5 32q-66 22 -66 80q0 51 43 76t100 25t100 -24.5t43 -76.5q0 -59 -65 -80q31 -8 51.5 -32t20.5 -56q0 -56 -44 -81t-106 -25 q-61 0 -105.5 25t-44.5 81zM107 182q0 -28 24 -41.5t60 -13.5t60 13.5t24 41.5t-26.5 41t-57.5 13q-32 0 -58 -13t-26 -41z" />
<glyph unicode="&#x2089;" horiz-adv-x="373" d="M181 228q-35 0 -60.5 -15.5t-25.5 -48.5t25.5 -49t60.5 -16q34 0 60.5 16.5t26.5 47.5q0 34 -25.5 49.5t-61.5 15.5zM181 51q-61 0 -102 26t-41 87q0 57 42 85t101 28t101.5 -28.5t42.5 -85.5v-141q0 -57 -40.5 -86t-98.5 -29q-59 0 -98.5 24t-42.5 71h56q5 -44 85 -44 q83 0 83 64v61q-31 -32 -88 -32z" />
<glyph unicode="&#x20ac;" horiz-adv-x="610" d="M551 75l20 -63q-63 -22 -124 -22q-287 0 -340 270h-65v58h57q-1 7 -1 28t1 31h-57v57h66q21 123 107 199t232 76q53 0 102 -15l-19 -58q-37 11 -83 11q-117 0 -181.5 -52t-88.5 -161h264l-15 -57h-262q-1 -9 -1 -30q0 -22 1 -29h248l-13 -58h-223q41 -204 271 -204 q52 0 104 19z" />
<glyph unicode="&#x2113;" horiz-adv-x="402" d="M204 242v-95q0 -44 37 -61.5t93 -4.5v-69q-101 -33 -166 2t-65 149l-49 -24l-14 46q34 14 62 30v333q0 91 34 129t122 38q135 0 110 -193q-17 -146 -164 -280zM201 548q0 -26 -0.5 -112.5t-0.5 -124.5q107 123 120 220q2 28 4 57t-14 52t-50 23q-28 0 -43.5 -34.5 t-15.5 -80.5z" />
<glyph unicode="&#x2117;" horiz-adv-x="832" d="M416 714q168 0 264.5 -105t96.5 -260t-96.5 -260t-264.5 -105q-167 0 -264 105t-97 260t97 260t264 105zM120 349q0 -134 79 -221t217 -87t217.5 87.5t79.5 220.5t-79.5 220.5t-217.5 87.5t-217 -87t-79 -221zM351 281h110q37 0 65.5 14t42.5 36.5t20.5 49.5t-0.5 53.5 t-22 49t-42.5 36.5t-61.5 14h-172v-379h60v126zM351 478h112q17 0 33 -9q29 -14 36 -47t-13 -61t-59 -28h-109v145z" />
<glyph unicode="&#x2122;" horiz-adv-x="791" d="M173 420v237h-111v43h273v-43h-113v-237h-49zM387 420v280h46l115 -147l116 147h44v-280h-49v201l-108 -131h-9l-106 133v-203h-49z" />
<glyph unicode="&#x2126;" horiz-adv-x="821" d="M410 644q-135 0 -209.5 -85t-73.5 -207q0 -102 54.5 -183.5t154.5 -105.5v-63h-250v63l133 -2q-80 43 -122 120.5t-42 171.5q0 151 95 255t260 104q111 0 193.5 -50.5t122.5 -131t40 -177.5q0 -94 -42 -171.5t-122 -120.5l133 2v-63h-250v63q99 24 153.5 105.5 t55.5 183.5q0 122 -74.5 207t-209.5 85z" />
<glyph unicode="&#x212e;" horiz-adv-x="646" d="M331 -7q-116 0 -192 78t-76 218q0 142 75.5 219.5t191.5 77.5q58 0 106.5 -17t87 -53t57 -100.5t11.5 -152.5h-402v-170q58 -53 141 -53q125 0 190 93l37 -29q-43 -61 -98 -86t-129 -25zM330 539q-87 0 -140 -46v-183h283v186q-55 43 -143 43z" />
<glyph unicode="&#x2153;" horiz-adv-x="749" d="M51 351v50h63v243l-55 -13v51l113 27v-308h65v-50h-186zM571 163h-56v49h52q79 0 80 51q0 20 -21 36.5t-59 16.5q-31 0 -56 -13t-26 -45h-52q0 54 39.5 80.5t94.5 26.5q56 0 96 -26.5t40 -75.5q0 -28 -15 -48.5t-40 -27.5q29 -8 46 -31t17 -48q0 -60 -41.5 -86 t-102.5 -26q-59 0 -98.5 26t-40.5 83h59q2 -55 81 -55q84 0 84 58q0 20 -20 37.5t-61 17.5zM498 704h66l-376 -707h-65z" />
<glyph unicode="&#x2154;" horiz-adv-x="828" d="M649 163h-56v49h52q80 0 80 51q0 20 -21 36.5t-59 16.5q-31 0 -56 -13t-26 -45h-52q0 54 39.5 80.5t94.5 26.5q56 0 96.5 -26.5t40.5 -75.5q0 -28 -15 -48.5t-41 -27.5q29 -8 46 -31t17 -48q0 -60 -41.5 -86t-102.5 -26q-59 0 -98.5 26t-40.5 83h59q2 -55 81 -55 q85 0 85 58q0 20 -20.5 37.5t-61.5 17.5zM576 704h67l-377 -707h-65zM108 601h-55q0 57 38.5 81.5t96.5 24.5t96.5 -25.5t38.5 -82.5q0 -33 -11.5 -55t-33 -33t-41 -15.5t-47.5 -7.5q-21 -2 -27 -2.5t-22 -4t-21 -9t-10.5 -16t-5.5 -25.5v-27h215v-55h-268v83q0 99 134 106 q82 4 82 61q0 61 -80 61q-79 0 -79 -59z" />
<glyph unicode="&#x215b;" horiz-adv-x="775" d="M51 351v50h63v243l-55 -13v51l114 27v-308h64v-50h-186zM498 704h66l-376 -707h-65zM496 99q0 -28 28 -42.5t62 -14.5q32 0 60.5 14.5t29.5 42.5q0 30 -27.5 46t-62.5 16q-36 0 -63 -15.5t-27 -46.5zM435 98q0 32 20.5 55.5t53.5 32.5q-67 22 -67 80q0 51 43 76t100 25 q58 0 101 -24.5t43 -76.5q0 -59 -66 -80q32 -8 52.5 -32.5t20.5 -55.5q0 -56 -44.5 -81t-106.5 -25q-61 0 -105 25t-45 81zM502 266q0 -28 24 -41.5t60 -13.5t60 13.5t24 41.5t-26.5 41t-58.5 13t-58 -13t-25 -41z" />
<glyph unicode="&#x215c;" horiz-adv-x="834" d="M564 704h66l-376 -707h-65zM555 99q-1 -28 27.5 -42.5t61.5 -14.5t61.5 14.5t29.5 42.5q0 30 -27.5 46t-62.5 16q-36 0 -63 -15.5t-27 -46.5zM494 98q0 32 20.5 55.5t53.5 32.5q-67 22 -67 80q0 51 43 76t100 25q58 0 101 -24.5t43 -76.5q0 -59 -66 -80q32 -8 52.5 -32.5 t20.5 -55.5q0 -56 -44.5 -81t-106.5 -25q-61 0 -105.5 25t-44.5 81zM560 266q1 -28 24.5 -41.5t59.5 -13.5t60 13.5t25 41.5q0 28 -26.5 41t-58.5 13t-58 -13t-26 -41zM187 504h-55v49h51q80 0 80 52q0 20 -20.5 36.5t-58.5 16.5q-31 0 -56 -13t-26 -45h-52q0 54 39 80 t95 26t96 -26.5t40 -75.5q0 -59 -55 -76q29 -8 46 -31t17 -47q0 -60 -41.5 -86t-103.5 -26q-58 0 -98 26t-41 83h59q2 -56 82 -56q84 0 84 59q0 20 -20.5 37t-61.5 17z" />
<glyph unicode="&#x215d;" horiz-adv-x="837" d="M567 704h66l-376 -707h-65zM558 99q-1 -28 27.5 -42.5t61.5 -14.5t61.5 14.5t29.5 42.5q0 30 -27.5 46t-62.5 16q-36 0 -63 -15.5t-27 -46.5zM497 98q0 32 20.5 55.5t53.5 32.5q-67 22 -67 80q0 51 43 76t100 25q58 0 101 -24.5t43 -76.5q0 -59 -66 -80q32 -8 52.5 -32.5 t20.5 -55.5q0 -56 -44.5 -81t-106.5 -25q-61 0 -105.5 25t-44.5 81zM563 266q1 -28 24.5 -41.5t59.5 -13.5t60 13.5t25 41.5q0 28 -26.5 41t-58.5 13q-31 0 -57.5 -13t-26.5 -41zM309 702v-52h-199v-80h75q69 0 107 -31t38 -86q0 -54 -38 -85t-106 -31q-59 0 -99 24.5 t-41 81.5h55q0 -54 84 -54q87 0 87 64q0 27 -20 46.5t-67 19.5h-131v183h255z" />
<glyph unicode="&#x215e;" horiz-adv-x="755" d="M482 704h66l-376 -707h-65zM476 99q-1 -28 27.5 -42.5t61.5 -14.5t61.5 14.5t29.5 42.5q0 30 -27.5 46t-62.5 16q-36 0 -63 -15.5t-27 -46.5zM415 98q0 32 20.5 55.5t53.5 32.5q-67 22 -67 80q0 51 43 76t100 25q58 0 101 -24.5t43 -76.5q0 -59 -66 -80q32 -8 52.5 -32.5 t20.5 -55.5q0 -56 -44.5 -81t-106.5 -25q-61 0 -105.5 25t-44.5 81zM481 266q1 -28 24.5 -41.5t59.5 -13.5t60 13.5t25 41.5q0 28 -26.5 41t-58.5 13q-31 0 -57.5 -13t-26.5 -41zM132 343h-66l165 306h-190v52h263l4 -25z" />
<glyph unicode="&#x2190;" horiz-adv-x="632" d="M256 134l-217 217l217 217l38 -37l-147 -149h423v-64h-422l145 -149z" />
<glyph unicode="&#x2191;" horiz-adv-x="499" d="M32 402l217 217l217 -218l-37 -37l-149 147v-423h-64v422l-149 -145z" />
<glyph unicode="&#x2192;" horiz-adv-x="632" d="M376 568l217 -217l-217 -217l-38 36l147 150h-423v63h422l-145 150z" />
<glyph unicode="&#x2193;" horiz-adv-x="500" d="M467 293l-217 -217l-217 217l36 38l150 -147v423h63v-423l150 146z" />
<glyph unicode="&#x2196;" horiz-adv-x="503" d="M66 231v307h308l1 -53l-210 -1l299 -299l-45 -46l-298 299l-3 -208z" />
<glyph unicode="&#x2197;" horiz-adv-x="503" d="M129 487l1 51h308q0 -52 -0.5 -154t-0.5 -153l-52 -1q0 35 -0.5 104t-1.5 104l-298 -299l-46 46l299 299z" />
<glyph unicode="&#x2198;" horiz-adv-x="548" d="M138 161l-1 51l209 3l-299 299l45 46l299 -299q0 34 0.5 103.5t0.5 104.5l53 -1v-307h-307z" />
<glyph unicode="&#x2199;" horiz-adv-x="548" d="M411 212l-1 -51h-307v307l53 1q0 -35 0.5 -104t1.5 -104l298 299l45 -46l-299 -299z" />
<glyph unicode="&#x2202;" horiz-adv-x="605" d="M301 51q88 0 137 56t49 132t-49 131.5t-137 55.5q-87 0 -136 -55.5t-49 -131.5t49 -132t136 -56zM287 485q104 4 177 -68q-27 80 -107 142t-167 83l16 57q167 -48 257.5 -161.5t91.5 -285.5q2 -117 -67 -190t-187 -73q-120 0 -187 73.5t-67 175.5q0 98 63 170.5t177 76.5 z" />
<glyph unicode="&#x2206;" horiz-adv-x="762" d="M421 700l314 -700h-708l314 700h80zM381 631l-252 -568h503z" />
<glyph unicode="&#x220f;" horiz-adv-x="685" d="M591 -189h-74v822h-349v-822h-74v889h497v-889z" />
<glyph unicode="&#x2211;" horiz-adv-x="580" d="M345 366l-213 -300h394v-66h-490v36l231 331l-214 303v30h467v-63h-364z" />
<glyph unicode="&#x2212;" horiz-adv-x="529" d="M75 299v61h379v-61h-379z" />
<glyph unicode="&#x2215;" horiz-adv-x="433" d="M370 704h64l-376 -707h-63z" />
<glyph unicode="&#x2219;" horiz-adv-x="240" d="M71 311q0 30 24.5 42.5t49 0t24.5 -42.5t-24.5 -42.5t-49 0t-24.5 42.5z" />
<glyph unicode="&#x221a;" horiz-adv-x="615" d="M601 698l-237 -698h-63l-167 353l-92 -40l-21 50l161 71l153 -350l215 628z" />
<glyph unicode="&#x221e;" horiz-adv-x="793" d="M222 168q-78 1 -121 47.5t-42 109.5q0 64 44.5 111t123.5 47q78 0 171 -113q93 113 169 113q78 0 123 -47t46 -111q0 -63 -43 -109.5t-121 -47.5q-48 0 -89.5 29.5t-84.5 81.5q-43 -52 -84.5 -81.5t-91.5 -29.5zM224 226q25 0 50 13.5t37 25.5t37 39q4 4 10 11t9 10 l-16 20q-21 25 -36.5 40t-40 28t-50.5 13q-54 0 -83 -33.5t-25 -76.5q4 -37 32 -63t76 -27zM571 226q52 1 80.5 31t27.5 70q0 40 -29 69.5t-79 29.5q-8 0 -16.5 -1.5t-14.5 -3t-14.5 -6.5t-13 -7t-13 -9.5t-11.5 -9.5t-11.5 -11.5t-10.5 -11.5t-11.5 -12.5t-10.5 -11.5 l-15 -17q6 -5 16 -17q3 -3 15 -16t16.5 -17t15.5 -14.5t18 -14.5l17.5 -10t21 -8t22.5 -2z" />
<glyph unicode="&#x222b;" horiz-adv-x="456" d="M186 -1v531q0 82 40 128.5t118 46.5q57 0 106 -35l-29 -50q-42 25 -76 25q-92 0 -92 -115v-531q0 -176 -148 -176q-50 0 -99 35l28 48q33 -24 70 -24q43 0 62.5 28.5t19.5 88.5z" />
<glyph unicode="&#x2248;" horiz-adv-x="566" d="M121 369l-45 30q53 86 148 59l122 -42q71 -22 98 33l47 -25q-43 -96 -153 -65l-121 44q-57 18 -96 -34zM121 172l-45 30q25 40 63 57t85 2l122 -43q71 -22 98 34l47 -26q-47 -103 -153 -64l-121 43q-18 8 -32.5 8.5t-26.5 -6.5t-19.5 -14.5t-17.5 -20.5z" />
<glyph unicode="&#x2260;" horiz-adv-x="553" d="M72 189v56h138l87 140h-225v56h264l44 70l35 -20l-32 -50h96v-56h-135l-86 -140h221v-56h-260l-45 -74l-35 21l32 53h-99z" />
<glyph unicode="&#x2264;" horiz-adv-x="452" d="M75 95v55h302v-55h-302zM81 399v33l242 168l35 -45l-207 -139l210 -149l-38 -44z" />
<glyph unicode="&#x2265;" horiz-adv-x="451" d="M376 151v-56h-301v56h301zM371 432v-33l-242 -176l-38 44l209 149l-206 139l34 45z" />
<glyph unicode="&#x25ca;" horiz-adv-x="564" d="M528 352l-219 -345h-55l-216 345l216 344h55zM117 351l164 -278l173 278l-173 278z" />
<glyph unicode="&#x25fc;" horiz-adv-x="495" d="M0 495h495v-495h-495v495z" />
<glyph unicode="&#xfb01;" horiz-adv-x="573" d="M352 630l22 53q-38 22 -84 22q-78 0 -118 -46.5t-40 -128.5v-41h-98v-58h98v-431h67v431h152v58h-152v41q0 115 92 115q34 0 61 -15zM496 496h-67v-496h67v496zM416 649q0 30 24 42t47.5 0t23.5 -42t-23.5 -42t-47.5 0t-24 42z" />
<glyph unicode="&#xfb02;" horiz-adv-x="573" d="M357 692l-12 -58q-26 13 -57 13q-89 0 -89 -117v-41h142v-58h-142v-431h-67v431h-98v58h98v41q0 82 40 128.5t118 46.5q37 0 67 -13zM421 700h67v-700h-67v700z" />
<glyph horiz-adv-x="322" />
<glyph horiz-adv-x="0" />
<glyph horiz-adv-x="636" d="M303 439q-80 0 -134 -53.5t-54 -138.5q0 -88 53.5 -140.5t134.5 -52.5q52 0 93 21t62 55t31 75t0 82.5t-31 75.5t-62 55t-93 21zM73 -73h64q16 -119 174 -119q184 0 184 176v109q-31 -52 -83.5 -77.5t-112.5 -25.5q-108 0 -180 70t-72 187q0 114 72.5 184t180.5 70 q60 0 114.5 -27.5t81.5 -77.5v98h62v-510q0 -123 -69.5 -181t-177.5 -58q-103 0 -167 47.5t-71 134.5z" />
<glyph horiz-adv-x="636" d="M298 715h47l143 -133v-7h-69l-98 87l-97 -87h-69v7zM303 439q60 0 104.5 -28.5t64.5 -71.5t20 -92.5t-20 -92.5t-64.5 -71.5t-104.5 -28.5q-81 0 -134.5 52.5t-53.5 140.5q0 85 54 138.5t134 53.5zM136 -73h-64q7 -87 71 -134.5t166 -47.5q108 0 178.5 58t70.5 181v510 h-64v-98q-27 50 -80.5 77.5t-113.5 27.5q-108 0 -180.5 -70t-72.5 -184q0 -117 72 -187t180 -70q59 0 111 25.5t83 77.5v-109q0 -176 -184 -176q-157 0 -173 119z" />
<glyph horiz-adv-x="636" d="M400 706h56q1 -58 -33.5 -92t-92.5 -36q-63 -2 -101.5 32t-37.5 96h55q0 -32 18 -54t60 -22q40 0 58 22t18 54zM303 439q-80 0 -134 -53.5t-54 -138.5q0 -88 53.5 -140.5t134.5 -52.5q52 0 93 21t62 55t31 75t0 82.5t-31 75.5t-62 55t-93 21zM72 -73h64q16 -119 173 -119 q184 0 184 176v109q-31 -52 -83 -77.5t-111 -25.5q-108 0 -180 70t-72 187q0 114 72.5 184t180.5 70q60 0 113.5 -27.5t80.5 -77.5v98h64v-510q0 -123 -70.5 -181t-178.5 -58q-102 0 -166 47.5t-71 134.5z" />
<glyph horiz-adv-x="636" d="M272 663q0 30 24 42t47.5 0t23.5 -42q0 -29 -23.5 -41t-47.5 0t-24 41zM303 439q60 0 104.5 -28.5t64.5 -71.5t20 -92.5t-20 -92.5t-64.5 -71.5t-104.5 -28.5q-81 0 -134.5 52.5t-53.5 140.5q0 85 54 138.5t134 53.5zM136 -73h-64q7 -87 71 -134.5t166 -47.5 q108 0 178.5 58t70.5 181v510h-64v-98q-27 50 -80.5 77.5t-113.5 27.5q-108 0 -180.5 -70t-72.5 -184q0 -117 72 -187t180 -70q59 0 111 25.5t83 77.5v-109q0 -176 -184 -176q-157 0 -173 119z" />
<glyph horiz-adv-x="636" d="M267 624q0 10 5 24.5t16.5 40.5t18.5 47h49l-24 -73q29 -9 29 -40q0 -29 -23.5 -41t-47 0.5t-23.5 41.5zM303 439q60 0 104.5 -28.5t64.5 -71.5t20 -92.5t-20 -92.5t-64.5 -71.5t-104.5 -28.5q-81 0 -134.5 52.5t-53.5 140.5q0 85 54 138.5t134 53.5zM136 -73h-64 q7 -87 71 -134.5t166 -47.5q108 0 178.5 58t70.5 181v510h-64v-98q-27 50 -80.5 77.5t-113.5 27.5q-108 0 -180.5 -70t-72.5 -184q0 -117 72 -187t180 -70q59 0 111 25.5t83 77.5v-109q0 -176 -184 -176q-157 0 -173 119z" />
<glyph horiz-adv-x="462" d="M280 -139q0 -11 -5.5 -28t-17.5 -47t-20 -52h-50l28 87q-30 9 -30 41q0 4 2 8q4 25 27 34t44.5 -3.5t21.5 -39.5z" />
<glyph horiz-adv-x="462" d="M176 664q0 11 5.5 27.5t18 47t20.5 52.5h49l-28 -87q30 -9 30 -41q0 -4 -2 -8q-3 -25 -26 -34t-45 3.5t-22 39.5z" />
<glyph d="M136 427v-154q0 -70 31 -121t77 -74t100 -23t100 23t77 74t31 121v154q0 69 -31 120t-77 74t-100 23.5t-100 -22.5t-77 -74t-31 -121zM68 274v152q0 91 41 157.5t102.5 96.5t133 30t133 -30t102.5 -96.5t41 -157.5v-152q0 -91 -41 -157.5t-102.5 -96.5t-133 -30t-133 30 t-102.5 96.5t-41 157.5z" />
<glyph d="M149 0v57h176v568l-160 -38v58l225 55v-643h175v-57h-416z" />
<glyph d="M145 510h-69q1 44 18 79t43.5 57t62.5 36.5t72.5 20.5t77.5 6q70 0 128 -18.5t100 -67t42 -121.5q0 -55 -23.5 -95.5t-63.5 -63t-86 -33t-98 -10.5q-38 0 -72 -6t-67 -20t-52.5 -42t-19.5 -67v-100h478v-65h-543v164q0 56 23.5 96.5t65 61.5t87 30.5t99.5 9.5 q47 0 90.5 11t80 44t36.5 84q0 76 -61.5 111.5t-143.5 36.5q-37 0 -70 -6t-65 -20.5t-51 -43.5t-19 -69z" />
<glyph d="M348 329h-115v59h110q88 0 142 38.5t55 90.5q0 54 -50.5 94t-143.5 40q-47 0 -88 -9t-75.5 -39.5t-34.5 -79.5h-68q0 52 24 90t64.5 58t84 29t92.5 9q118 0 187.5 -52.5t70.5 -139.5q0 -56 -36.5 -100.5t-94.5 -56.5q63 -13 104 -57.5t41 -107.5q0 -94 -73.5 -149 t-197.5 -55q-40 0 -76.5 5t-74 19t-65 35t-44.5 56t-17 79h67q1 -130 211 -130q93 0 148 39t55 99q0 54 -52.5 95t-149.5 41z" />
<glyph d="M460 700h78v-483h82v-59h-82v-158h-65v158h-417l-12 54zM126 217h347v402z" />
<glyph d="M586 700v-64h-426v-205h207q129 0 193.5 -59t64.5 -156t-72.5 -159.5t-199.5 -62.5q-54 0 -100 10t-86.5 32t-64.5 63t-24 98h68q0 -42 19 -71.5t52 -43.5t65.5 -19.5t69.5 -5.5q95 0 149.5 44.5t54.5 114.5t-46.5 110.5t-142.5 40.5h-273v333h492z" />
<glyph d="M146 508v-169q32 46 91 69t121 23q53 0 100.5 -12t88 -36.5t64.5 -68.5t24 -103q0 -75 -42.5 -126.5t-103 -72.5t-132.5 -21t-133.5 21.5t-104 73.5t-42.5 127v295q0 97 80 150t191 53q115 0 191 -44t80 -133h-72q-4 56 -59 85t-139 29q-48 0 -92.5 -13.5t-77.5 -46.5 t-33 -80zM357 56q52 0 97 14t78 50.5t33 90.5q0 81 -61.5 119.5t-145.5 38.5q-81 0 -145.5 -41.5t-65.5 -115.5q0 -54 33.5 -90.5t78.5 -51t98 -14.5z" />
<glyph d="M250 0h-79l357 632h-433v68h511l7 -51z" />
<glyph d="M345 332q-48 0 -95.5 -12t-87.5 -46t-40 -84q0 -48 34 -81.5t83 -48t106 -14.5q90 0 155.5 36.5t66.5 107.5q0 49 -39.5 83t-87.5 46.5t-95 12.5zM52 191q1 62 42.5 108t103.5 62q-132 47 -132 158q0 69 42.5 114.5t102.5 63t133 17.5t133 -17t103.5 -63t43.5 -115 q0 -56 -38 -97t-99 -61q62 -16 105.5 -63t43.5 -107q0 -56 -23.5 -97t-66 -64t-92.5 -34t-110 -11t-110 11t-92 34t-66 64t-24 97zM135 520q0 -46 36 -76.5t81 -41.5t93 -11t92.5 11t81 41.5t36.5 76.5q0 70 -61 102.5t-150 32.5q-41 0 -77 -7.5t-66.5 -22.5t-48 -42 t-17.5 -63z" />
<glyph d="M546 194v169q-32 -46 -91.5 -69t-122.5 -23q-53 0 -100.5 12t-88 36.5t-64.5 68.5t-24 103q0 75 42.5 126.5t103 72.5t132.5 21t133.5 -21.5t104 -73.5t42.5 -127v-295q0 -97 -81.5 -150.5t-192.5 -53.5q-74 0 -133.5 18t-98.5 59t-42 101h72q4 -56 60.5 -85.5 t140.5 -29.5q48 0 93.5 13.5t80 47t34.5 80.5zM333 646q-52 0 -97 -14t-78 -50.5t-33 -90.5q0 -81 61.5 -119.5t145.5 -38.5q81 0 145.5 41.5t65.5 115.5q0 54 -33.5 90.5t-78.5 51t-98 14.5z" />
<glyph d="M591 77l20 -66q-59 -21 -123 -21q-149 0 -233.5 71t-109.5 199h-65v59h57q-1 7 -1 27t1 30h-57v59h66q21 123 108 198.5t234 75.5q52 0 101 -15l-19 -62q-37 11 -82 11q-224 0 -268 -208h262l-16 -59h-259q-1 -9 -1 -29q0 -21 1 -28h245l-13 -59h-220q19 -97 86.5 -149.5 t182.5 -52.5q51 0 103 19z" />
<glyph d="M519 110l44 -48q-64 -63 -150 -72v-71h-64v72q-99 12 -161.5 78.5t-62.5 172.5q0 103 62.5 171t161.5 81v63h64v-63q88 -11 150 -72l-43 -43q-59 56 -138 56q-81 0 -135.5 -52t-54.5 -141q0 -90 54 -140.5t136 -50.5q78 0 137 59z" />
<glyph d="M202 500q0 -33 24 -143h246v-60h-234q24 -145 -74 -230h446v-67h-531v65q66 59 84 113t7 119h-91v60h77q-24 92 -24 143q0 100 67.5 153.5t175.5 53.5q101 0 164.5 -44.5t64.5 -143.5h-64q-4 125 -165 125q-80 0 -126.5 -38t-46.5 -106z" />
<glyph d="M297 -1v431h-144v59h144v48q0 82 40 128.5t118 46.5q56 0 105 -35l-29 -50q-42 25 -76 25q-92 0 -92 -115v-48h175v-59h-175v-431q0 -176 -148 -176q-50 0 -99 35l29 48q32 -24 69 -24q83 0 83 117z" />
<glyph d="M531 217v-55h-153v-162h-70v162h-157v55h157v60h-157v55h124l-236 366v2h81l223 -352l226 352h82v-2l-240 -366h120v-55h-153v-60h153z" />
<glyph d="M608 583l-61 -32q-24 45 -81 68t-118 23q-75 0 -137 -31t-61 -95q0 -24 11.5 -42.5t27 -30t45 -21t53.5 -14.5t64 -12q31 -5 46.5 -8t43.5 -9.5t43.5 -12t39 -14.5t36.5 -19t28.5 -24.5t23.5 -31.5t13.5 -39t5.5 -47q0 -63 -39 -108t-93 -65t-117 -23v-97h-65v96 q-86 5 -157.5 40.5t-105.5 104.5l66 30q26 -54 91 -80.5t136 -26.5q49 0 94 11t80.5 41.5t35.5 76.5q0 27 -12.5 49t-31 35.5t-50 24.5t-57 16.5t-65.5 12.5q-41 7 -65.5 12t-59.5 15t-56 22.5t-41.5 31t-30.5 45t-11 60.5q-1 89 70.5 137t169.5 55v97h65v-97 q168 -13 226 -124z" />
<glyph horiz-adv-x="392" d="M100 204v-53q0 -49 30 -77t65.5 -28.5t65.5 27.5t30 78v53q0 50 -30 79t-65.5 29t-65.5 -28.5t-30 -79.5zM43 149v57q0 44 17 78t44 51.5t59.5 25.5t65 -0.5t59.5 -26t44 -52t17 -77.5v-55q0 -44 -17 -78t-44 -52t-59.5 -26.5t-65 0t-59.5 26t-44 51.5t-17 78z" />
<glyph horiz-adv-x="255" d="M35 0v48h71v245l-55 -14v52l111 26v-309h66v-48h-193z" />
<glyph horiz-adv-x="362" d="M101 256h-56q0 58 39 83t98 25t98.5 -25.5t39.5 -84.5q0 -33 -11.5 -55.5t-34 -34t-42 -16t-48.5 -7.5q-19 -2 -22.5 -2.5t-19 -2.5t-19.5 -5.5t-12.5 -9.5t-11 -15.5t-2.5 -22.5v-27h219v-56h-273v84q0 101 136 108q84 4 84 62q0 62 -82 62q-80 0 -80 -60z" />
<glyph horiz-adv-x="362" d="M181 162h-56v49h52q80 0 80 52q0 20 -20.5 36t-59.5 16q-80 0 -82 -57h-52q0 53 39.5 79.5t94.5 26.5q56 0 96 -26.5t41 -75.5q0 -28 -15 -48.5t-41 -27.5q29 -8 46 -31t17 -47q0 -60 -41.5 -86.5t-102.5 -26.5q-58 0 -98 26.5t-41 82.5h59q2 -56 81 -56q85 0 85 59 q0 21 -20 38t-62 17z" />
<glyph horiz-adv-x="362" d="M200 359h78v-231h47v-53h-47v-74h-56v74h-192l-3 47zM222 128v176l-130 -176h130z" />
<glyph horiz-adv-x="360" d="M303 359v-52h-199v-81h75q69 0 107 -31t38 -85t-38 -85.5t-105 -31.5q-60 0 -100 25t-41 82h55q1 -54 85 -54q86 0 86 64q0 27 -19.5 46.5t-67.5 19.5h-130v183h254z" />
<glyph horiz-adv-x="374" d="M192 44q35 0 60.5 15t25.5 48t-25.5 49t-59.5 16q-35 0 -61 -16.5t-27 -47.5q0 -33 25.5 -48.5t61.5 -15.5zM193 221q60 0 101.5 -26.5t41.5 -87.5q0 -57 -42.5 -84.5t-101.5 -27.5q-60 0 -102 28t-42 85v141q0 57 41 86.5t98 29.5q59 0 98.5 -24t42.5 -72h-56 q-5 44 -84 44q-83 0 -83 -64v-60q31 32 88 32z" />
<glyph horiz-adv-x="313" d="M121 0h-66l165 307h-191v52h264l4 -26z" />
<glyph horiz-adv-x="383" d="M102 99q-1 -28 27.5 -43t61.5 -15t61.5 14.5t29.5 43.5q0 30 -27.5 46t-62.5 16q-36 0 -63 -15.5t-27 -46.5zM41 98q0 32 21 55.5t53 31.5q-67 22 -67 81q0 51 43 76t100 25q58 0 101 -24.5t43 -76.5q0 -58 -66 -81q31 -8 52 -32t21 -55q0 -56 -45 -81.5t-106 -24.5 q-61 0 -105.5 25t-44.5 81zM107 266q1 -28 24.5 -41.5t59.5 -13.5t60 13.5t25 41.5q0 28 -26.5 41t-58.5 13q-31 0 -57.5 -13t-26.5 -41z" />
<glyph horiz-adv-x="375" d="M182 314q-35 0 -60.5 -15t-25.5 -48t25.5 -49t60.5 -16q34 0 60.5 16.5t26.5 47.5q0 33 -25.5 48.5t-61.5 15.5zM182 137q-61 0 -102 26.5t-41 87.5q0 57 42 85t101 28t101.5 -28.5t42.5 -85.5v-141q0 -57 -40.5 -86t-98.5 -29q-59 0 -98.5 24t-42.5 71h56q5 -44 85 -44 q83 0 83 64v60q-32 -32 -88 -32z" />
<glyph horiz-adv-x="385" d="M100 552v-53q0 -49 28.5 -77t63 -28.5t63 27.5t28.5 78v53q0 50 -28.5 79t-63 29t-63 -28.5t-28.5 -79.5zM43 499v53q0 60 31 101.5t74.5 51t87.5 0t75 -51t31 -101.5v-53q0 -51 -22 -88t-55.5 -54t-72 -17t-72 17t-55.5 54t-22 88z" />
<glyph horiz-adv-x="252" d="M38 352v50h63v243l-55 -13v52l113 26v-308h65v-50h-186z" />
<glyph horiz-adv-x="362" d="M101 598h-56q0 58 39 83t98 25t98.5 -25.5t39.5 -84.5q0 -33 -11.5 -55.5t-34 -34t-42 -16t-48.5 -7.5q-19 -2 -22.5 -2.5t-19 -2.5t-19.5 -5.5t-12.5 -9.5t-11 -15.5t-2.5 -22.5v-27h219v-56h-273v84q0 101 136 108q84 4 84 62q0 62 -82 62q-80 0 -80 -60z" />
<glyph horiz-adv-x="362" d="M181 507h-56v49h52q79 0 80 52q0 20 -21 36t-59 16q-31 0 -56 -13t-26 -44h-52q0 53 39.5 79.5t94.5 26.5q56 0 96 -26.5t40 -75.5q0 -28 -15 -48.5t-40 -27.5q29 -8 46 -31t17 -47q0 -60 -41.5 -86.5t-102.5 -26.5q-58 0 -98 26.5t-41 82.5h59q2 -55 81 -55q84 0 84 58 q0 21 -20 38t-61 17z" />
<glyph horiz-adv-x="356" d="M199 702h78v-231h42v-52h-42v-75h-56v75h-192l-3 46zM221 471v177l-130 -177h130z" />
<glyph horiz-adv-x="361" d="M304 701v-52h-199v-80h75q69 0 107 -31t38 -86q0 -54 -38 -85t-106 -31q-59 0 -99 24.5t-41 81.5h55q0 -54 84 -54q87 0 87 64q0 27 -20 46.5t-67 19.5h-131v183h255z" />
<glyph horiz-adv-x="374" d="M193 389q35 0 60.5 15t25.5 48t-25.5 49t-60.5 16q-34 0 -60.5 -16.5t-26.5 -47.5q0 -33 25.5 -48.5t61.5 -15.5zM193 566q61 0 102 -26.5t41 -87.5q0 -57 -42 -85t-101 -28t-101.5 28.5t-42.5 85.5v141q0 57 40.5 86t98.5 29q59 0 98.5 -24t42.5 -71h-56q-5 44 -85 44 q-83 0 -83 -64v-60q32 32 88 32z" />
<glyph horiz-adv-x="314" d="M121 342h-66l165 307h-191v52h264l4 -26z" />
<glyph horiz-adv-x="382" d="M101 442q0 -28 28.5 -43t61.5 -15t61.5 14.5t28.5 43.5q0 30 -27 46t-63 16t-63 -15.5t-27 -46.5zM41 441q0 32 20.5 55.5t52.5 31.5q-66 22 -66 81q0 51 43 76t100 25t100.5 -24.5t43.5 -76.5q0 -58 -66 -81q31 -8 51.5 -32t20.5 -55q1 -56 -43.5 -81.5t-106.5 -24.5 q-61 0 -105.5 25t-44.5 81zM107 609q0 -28 24 -41.5t60 -13.5t60 13.5t24 41.5q1 28 -25.5 41t-58.5 13q-31 0 -57.5 -13t-26.5 -41z" />
<glyph horiz-adv-x="374" d="M182 661q-35 0 -60.5 -15t-25.5 -49q0 -32 25.5 -48t60.5 -16t61 16.5t26 47.5q0 33 -25.5 48.5t-61.5 15.5zM182 484q-61 0 -102 26t-41 87q0 57 42 85t101 28q60 0 102 -28.5t42 -85.5v-140q0 -58 -40.5 -87t-98.5 -29q-59 0 -98.5 24t-42.5 72h56q5 -45 85 -45 q38 0 60.5 16.5t22.5 48.5v60q-31 -32 -88 -32z" />
<glyph horiz-adv-x="343" d="M275 801l35 -49q-90 -64 -138.5 -168t-49.5 -221q-2 -119 46 -223.5t142 -173.5l-36 -52q-101 65 -157.5 174.5t-63.5 234.5q-9 142 48.5 272.5t173.5 205.5z" />
<glyph horiz-adv-x="342" d="M32 754l35 49q116 -75 173.5 -205.5t48.5 -272.5q-7 -125 -63.5 -234.5t-157.5 -174.5l-35 52q93 69 141 173.5t46 223.5q-1 117 -49.5 221t-138.5 168z" />
<glyph horiz-adv-x="505" d="M75 301v63h355v-63h-355z" />
<glyph horiz-adv-x="333" d="M290 -94h-196v883h196v-63h-127v-757h127v-63z" />
<glyph horiz-adv-x="333" d="M239 -95h-196v64h126v758h-126v62h196v-884z" />
<glyph horiz-adv-x="328" d="M285 -17v-52q-102 -16 -135.5 23t-33.5 148v117q0 110 -76 110v52q76 0 76 109v137q0 89 39 125t130 19v-50q-61 10 -82.5 -10.5t-21.5 -85.5v-135q0 -27 -1.5 -42.5t-7.5 -37t-21.5 -35t-40.5 -20.5q20 -5 34 -16.5t21 -23t11 -30.5t4.5 -31.5t0.5 -34.5v-143 q0 -64 21 -83.5t83 -9.5z" />
<glyph horiz-adv-x="257" d="M162 757v-830h-67v830h67z" />
<glyph horiz-adv-x="329" d="M44 -68v52q62 -10 82.5 9t20.5 83v144q0 22 0.5 34.5t4.5 31.5t11 30.5t21.5 23t34.5 16.5q-25 7 -41 20.5t-22 35t-7.5 37t-1.5 42.5v135q0 65 -21.5 85.5t-81.5 10.5v49q91 17 129.5 -18.5t38.5 -125.5v-136q0 -109 77 -109v-52q-77 0 -77 -110v-117q0 -109 -33 -148 t-135 -23z" />
<glyph horiz-adv-x="343" d="M61 345l139 220h71v-4l-136 -216q16 -25 127 -202l9 -18h-71z" />
<glyph horiz-adv-x="343" d="M144 560l139 -219l-139 -221h-71l136 221l-136 216v3h71z" />
<glyph horiz-adv-x="466" d="M61 332l139 220h71v-4l-136 -216q16 -25 127 -202l9 -18h-71zM185 332l138 220h72v-4l-136 -216l136 -220h-72z" />
<glyph horiz-adv-x="467" d="M268 559l138 -219l-138 -221h-71l135 221l-135 215v4h71zM144 559l138 -219l-138 -221h-72l136 221l-136 215v4h72z" />
<glyph horiz-adv-x="601" d="M74 308v61h453v-61h-453z" />
<glyph horiz-adv-x="709" d="M76 310v61h557v-61h-557z" />
<glyph horiz-adv-x="386" d="M194 236q-46 0 -76 28.5t-30 75.5q0 46 30 74.5t76 28.5q44 0 74 -28.5t30 -74.5t-30 -75t-74 -29z" />
<glyph horiz-adv-x="247" d="M75 337q0 30 24.5 42.5t48.5 0t24 -42.5t-24 -42.5t-48.5 0t-24.5 42.5z" />
<glyph horiz-adv-x="556" d="M94 404l-10 61q90 36 165 36q106 0 170 -45t64 -144v-312h-58l-2 88q-30 -47 -80.5 -72t-107.5 -25q-82 0 -140 40t-58 120t58 120.5t140 39.5q100 0 182 -43v44q0 126 -168 126q-76 0 -155 -34zM104 151q1 -55 42 -78t96 -23q69 0 120.5 47t54.5 113q-74 41 -175 43 q-59 0 -99 -23.5t-39 -78.5z" />
<glyph horiz-adv-x="556" d="M170 700v2h78l69 -116v-4h-57zM94 404l-10 61q90 36 165 36q106 0 170 -45t64 -144v-312h-58l-2 88q-30 -47 -80.5 -72t-107.5 -25q-82 0 -140 40t-58 120t58 120.5t140 39.5q100 0 182 -43v44q0 126 -168 126q-76 0 -155 -34zM104 151q1 -55 42 -78t96 -23 q69 0 120.5 47t54.5 113q-74 41 -175 43q-59 0 -99 -23.5t-39 -78.5z" />
<glyph horiz-adv-x="556" d="M380 701v-2l-90 -118h-57v4l69 116h78zM84 465l10 -61q79 34 155 34q168 0 168 -126v-44q-82 43 -182 43q-82 1 -140 -39.5t-58 -120.5t58 -120t140 -40q57 0 107.5 25t80.5 72l2 -88h58v312q0 99 -64 144t-170 45q-75 0 -165 -36zM104 151q-1 55 39 78.5t99 23.5 q101 -2 175 -43q-3 -66 -54.5 -113t-120.5 -47q-55 0 -96 23t-42 78z" />
<glyph horiz-adv-x="556" d="M250 701h44l132 -121v-7h-65l-89 80l-88 -80h-66v7zM84 465l10 -61q79 34 155 34q168 0 168 -126v-44q-82 43 -182 43q-82 1 -140 -39.5t-58 -120.5t58 -120t140 -40q57 0 107.5 25t80.5 72l2 -88h58v312q0 99 -64 144t-170 45q-75 0 -165 -36zM104 151q-1 55 39 78.5 t99 23.5q101 -2 175 -43q-3 -66 -54.5 -113t-120.5 -47q-55 0 -96 23t-42 78z" />
<glyph horiz-adv-x="556" d="M94 404l-10 61q58 26 125.5 33t129.5 -6t103 -59.5t41 -120.5v-312h-58l-2 88q-30 -47 -80.5 -72t-107.5 -25q-82 0 -140 40t-58 120t58 120.5t140 39.5q100 0 182 -43v44q0 126 -168 126q-76 0 -155 -34zM104 151q1 -55 42 -78t96 -23q69 0 120.5 47t54.5 113 q-74 41 -175 43q-59 0 -99 -23.5t-39 -78.5zM175 610l-44 18q8 38 34.5 56.5t62.5 11.5q11 -2 42.5 -18t51.5 -14.5t30 31.5l45 -18q-8 -41 -35 -58t-60 -10q-10 3 -27.5 11.5t-30.5 13.5t-27 7.5t-25 -5.5t-17 -26z" />
<glyph horiz-adv-x="557" d="M251 501q-79 0 -176 -41l13 -58q80 38 163 38q166 0 166 -128v-45q-82 43 -180 43q-81 1 -139.5 -40t-58.5 -119q0 -80 58 -120t140 -40q122 0 185 97l2 -88h60v312q0 99 -63.5 144t-169.5 45zM107 151q0 51 40 75.5t97 24.5q97 -2 172 -43q-3 -70 -52 -114t-120 -44 q-53 0 -95 25t-42 76zM130 659q0 27 22 38.5t44 0t22 -38.5t-22 -38.5t-44 0t-22 38.5zM337 659q0 27 22 38.5t44 0t22 -38.5t-22 -38.5t-44 0t-22 38.5z" />
<glyph horiz-adv-x="557" d="M124 627v55h295v-55h-295zM251 501q106 0 169.5 -45t63.5 -144v-312h-60l-2 88q-63 -97 -185 -97q-82 0 -140 40t-58 120q0 78 58.5 119t139.5 40q98 0 180 -43v45q0 128 -166 128q-83 0 -163 -38l-13 58q97 41 176 41zM107 151q0 -51 42 -76t95 -25q71 0 120 44t52 114 q-75 41 -172 43q-57 0 -97 -24.5t-40 -75.5z" />
<glyph horiz-adv-x="557" d="M251 501q106 0 169.5 -45t63.5 -144v-312h-60l-2 88q-63 -97 -185 -97q-82 0 -140 40t-58 120q0 78 58.5 119t139.5 40q98 0 180 -43v45q0 128 -166 128q-83 0 -163 -38l-13 58q97 41 176 41zM107 151q0 -51 42 -76t95 -25q71 0 120 44t52 114q-75 41 -172 43 q-57 0 -97 -24.5t-40 -75.5zM353 702h54q2 -59 -32.5 -90.5t-94.5 -31.5q-58 0 -92 32.5t-32 89.5h51q0 -73 73 -73q38 0 55.5 21t17.5 52z" />
<glyph horiz-adv-x="557" d="M171 651q0 43 31.5 67t74.5 24t75 -24t32 -67t-30.5 -67t-76.5 -24q-47 0 -76.5 24t-29.5 67zM276 701q-35 0 -49.5 -24.5t0 -49.5t49.5 -25q36 0 51 25t0 49.5t-51 24.5zM251 501q106 0 169.5 -45t63.5 -144v-312h-60l-2 88q-63 -97 -185 -97q-82 0 -140 40t-58 120 q0 78 58.5 119t139.5 40q98 0 180 -43v45q0 128 -166 128q-83 0 -163 -38l-13 58q97 41 176 41zM107 151q0 -51 42 -76t95 -25q71 0 120 44t52 114q-75 41 -172 43q-57 0 -97 -24.5t-40 -75.5z" />
<glyph horiz-adv-x="557" d="M184 628q0 -40 27.5 -62.5t71.5 -22.5q42 0 71 23t29 62q0 40 -29.5 62t-70.5 22t-70 -22t-29 -62zM282 674q34 0 48 -23t0 -45.5t-48 -22.5q-33 0 -46 22.5t0 45.5t46 23zM395 832v-1l-88 -91h-56v3l72 89h72zM251 501q-79 0 -176 -41l13 -58q80 38 163 38 q166 0 166 -128v-45q-82 43 -180 43q-81 1 -139.5 -40t-58.5 -119q0 -80 58 -120t140 -40q122 0 185 97l2 -88h60v312q0 99 -63.5 144t-169.5 45zM107 151q0 51 40 75.5t97 24.5q97 -2 172 -43q-3 -70 -52 -114t-120 -44q-53 0 -95 25t-42 76z" />
<glyph horiz-adv-x="557" d="M251 501q106 0 169.5 -45t63.5 -144v-350q-45 5 -76.5 -10.5t-32.5 -40.5q-2 -21 16 -36t49 -13q48 2 76 43l37 -25q-17 -33 -49.5 -50.5t-70.5 -17.5q-49 -1 -78.5 22.5t-31.5 58.5q-3 35 21.5 65.5t79.5 38.5l-2 91q-63 -97 -185 -97q-82 0 -140 40t-58 120 q0 78 58.5 119t139.5 40q98 0 180 -43v45q0 128 -166 128q-83 0 -163 -38l-13 58q97 41 176 41zM107 151q0 -51 42 -76t95 -25q71 0 120 44t52 114q-75 41 -172 43q-57 0 -97 -24.5t-40 -75.5z" />
<glyph horiz-adv-x="606" d="M71 494h67v-277q0 -77 43.5 -119.5t118.5 -41.5q70 0 115.5 48.5t45.5 120.5v269h67v-511q0 -117 -63 -177.5t-164 -60.5t-157.5 47.5t-62.5 132.5h65q13 -117 155 -117q72 0 117.5 43.5t45.5 131.5v100q-54 -89 -175 -91q-98 0 -158 60t-60 164v278z" />
<glyph horiz-adv-x="606" d="M138 494h-67v-278q0 -104 60 -164t158 -60q121 2 175 91v-100q0 -88 -45.5 -131.5t-117.5 -43.5q-142 0 -155 117h-65q6 -85 62.5 -132.5t157.5 -47.5t164 60.5t63 177.5v511h-67v-269q0 -72 -45.5 -120.5t-115.5 -48.5q-75 -1 -118.5 41.5t-43.5 119.5v277zM407 703v-2 l-92 -123h-55v4l71 121h76z" />
<glyph horiz-adv-x="606" d="M138 494h-67v-278q0 -104 60 -164t158 -60q121 2 175 91v-100q0 -88 -45.5 -131.5t-117.5 -43.5q-142 0 -155 117h-65q6 -85 62.5 -132.5t157.5 -47.5t164 60.5t63 177.5v511h-67v-269q0 -72 -45.5 -120.5t-115.5 -48.5q-75 -1 -118.5 41.5t-43.5 119.5v277zM288 708h44 l135 -126v-6h-67l-90 82l-91 -82h-67v6z" />
<glyph horiz-adv-x="606" d="M138 494h-67v-278q0 -104 60 -164t158 -60q121 2 175 91v-100q0 -88 -45.5 -131.5t-117.5 -43.5q-142 0 -155 117h-65q6 -85 62.5 -132.5t157.5 -47.5t164 60.5t63 177.5v511h-67v-269q0 -72 -45.5 -120.5t-115.5 -48.5q-75 -1 -118.5 41.5t-43.5 119.5v277zM158 659 q0 22 14 34t31.5 12t31.5 -12t14 -34q0 -28 -22.5 -39.5t-45.5 0t-23 39.5zM373 659q0 29 23 41t46 0t23 -41q0 -28 -23 -39.5t-46 0t-23 39.5z" />
<glyph horiz-adv-x="606" d="M71 494h67v-277q0 -77 43.5 -119.5t118.5 -41.5q70 0 115.5 48.5t45.5 120.5v269h67v-511q0 -117 -63 -177.5t-164 -60.5t-157.5 47.5t-62.5 132.5h65q13 -117 155 -117q72 0 117.5 43.5t45.5 131.5v100q-54 -89 -175 -91q-98 0 -158 60t-60 164v278zM203 699v2h78 l64 -119v-4h-56z" />
<glyph horiz-adv-x="310" d="M184 488l-42 61l-42 -61q-11 -21 -33 -11q-21 9 -17 29q2 6 7 12l47 58l-66 19q-15 3 -18 17.5t7 25.5t25 6l66 -24l-4 69q0 22 28 22t28 -22l-4 -69l66 24q15 5 25 -6t7 -25.5t-18 -17.5l-66 -19l47 -58q12 -14 4.5 -28.5t-22.5 -15t-25 13.5z" />
</font>
</defs>
</svg>
